Loading...
Error

Трансформеры 5: Последний рыцарь / Transformers: The Last Knight (Майкл Бэй / Michael Bay) [2017 г., фантастика, боевик, триллер, приключения, BDRemux 1080p] 2xDub (Rus) + AVO (Гаврилов) + Original (Eng) + Sub (Rus, Eng)

Статистика раздачи
Размер:  45,04 GB   |    Зарегистрирован:  2 месяца 13 дней   |    Скачан:  3 раза

Полного источника не было: 19 дней

Сидов:  0  |  0 KB/s  ]   Личеров:  0  |  0 KB/s  ]

* - сиды/пиры с внешних источников

   
 
Автор Сообщение

90ytr90 

12-Мар-2018 17:53

Трансформеры 5: Последний рыцарь
Transformers: The Last Knight
«Кто теперь твои герои?»

Страна: США
Год выпуска: 2017
Жанр: фантастика, боевик, триллер, приключения
Продолжительность: 02:34:38
Озвучивание:
  • профессиональное (полное дублирование) [Sergesha]
  • профессиональное (полное дублирование) [лицензия]
  • авторское (одноголосое закадровое) [Гаврилов]
  • оригинальная звуковая дорожка [английский]

Режиссёр: Майкл Бэй / Michael Bay

В ролях: Марк Уолберг, Энтони Хопкинс, Джош Дюамель, Лора Хэддок, Сантьяго Кабрера, Изабела Монер, Джеррод Кармайкл, Стэнли Туччи, Лиам Гэрриган, Мартин МакКриди


Сюжет фильма:
Оптимус Прайм исчез. Люди ведут войну с Трансформерами. Ключ к нашему будущему погребен в тайнах прошлого, в скрытой истории Трансформеров на Земле... Миссия по спасению мира ложится на плечи разношерстной компании, состоящей из Кейда Йегера, Бамблби, английского лорда и профессора из Оксфорда. Пришла пора действовать! Жертвы станут героями. Герои станут злодеями. Выстоит только один мир: их или наш.

  • Дата мировой премьеры: 21 июня 2017
  • Дата российской премьеры: 22 июня 2017, «Централ Партнершип» 3D
             
Качество видео: BDRemux 1080p
Формат: MKV
Видео: AVC, 1920x1080 (16:9), 27.6 Mbps, 31 Mbps, 23.976 (24000/1001) fps, 0.556 bit/pixel
Аудио #1: DTS-HD MA, 4565 kbps/1509 kbps, 8 ch/6 ch, 48 kHz, Dub [Sergesha]
Аудио #2: AC3, 640 kbps, 6 ch, 48 kHz, Dub [лицензия]
Аудио #3: DTS-HD MA, 4500 kbps/1509 kbps, 8 ch/6 ch, 48 kHz, AVO [Гаврилов]
Аудио #4: TrueHD, 6528 kbps, 8 ch, /48 kHz, Original [English]
Субтитры: Russian (forced, full), English (full, SDH)
Навигация по главам: есть (24)



Общее
Уникальный идентификатор : 230166909983993090723061027253753359430 (0xAD2888CF63ECFC6DB2ABEE2662422C46)
Полное имя : D:\РЕМУКС!!!!!\Трансформеры. Последний рыцарь. BDRemux.mkv
Формат : Matroska
Версия формата : Version 4 / Version 2
Размер файла : 45,0 Гбайт
Продолжительность : 2 ч. 34 м.
Режим общего битрейта : Переменный
Общий поток : 41,7 Мбит/сек
Название фильма : Трансформеры. Последний рыцарь. BDRemux.thx:SPOMOPS
Дата кодирования : UTC 2018-03-11 18:45:49
Программа кодирования : mkvmerge v8.3.0 ('Over the Horizon') 64bit
Библиотека кодирования : libebml v1.3.1 + libmatroska v1.4.2

Видео
Идентификатор : 1
Формат : AVC
Формат/Информация : Advanced Video Codec
Профиль формата : High@L4.1
Настройки формата : CABAC / 4 Ref Frames
Параметр CABAC формата : Да
Параметр RefFrames формата : 4 кадра
Идентификатор кодека : V_MPEG4/ISO/AVC
Продолжительность : 2 ч. 34 м.
Вид битрейта : Переменный
Битрейт : 27,6 Мбит/сек
Максимальный битрейт : 31,0 Мбит/сек
Ширина : 1920 пикселей
Высота : 1080 пикселей
Соотношение сторон : 16:9
Режим частоты кадров : Постоянный
Частота кадров : 23,976 (24000/1001) кадра/сек
Цветовое пространство : YUV
Субдискретизация насыщенности : 4:2:0
Битовая глубина : 8 бит
Тип развёртки : Прогрессивная
Бит/(Пиксели*Кадры) : 0.556
Размер потока : 29,8 Гбайт (66%)
Язык : English
Default : Да
Forced : Нет

Аудио #1
Идентификатор : 2
Формат : DTS
Формат/Информация : Digital Theater Systems
Профиль формата : MA / Core
Идентификатор кодека : A_DTS
Продолжительность : 2 ч. 34 м.
Вид битрейта : Переменный / Постоянный
Битрейт : 4565 Кбит/сек / 1509 Кбит/сек
Каналы : 8 каналов / 6 каналов
Расположение каналов : Front: L C R, Side: L R, Back: L R, LFE / Front: L C R, Side: L R, LFE
Частота : 48,0 КГц
Частота кадров : 93,750 кадра/сек (512 SPF)
Битовая глубина : 24 бит
Метод сжатия : Без потерь / Lossy
Задержка видео : 594 мс.
Размер потока : 4,93 Гбайт (11%)
Заголовок : Русский DTS-HD MA - Дубляж
Язык : Russian
Default : Да
Forced : Нет

Аудио #2
Идентификатор : 3
Формат : AC-3
Формат/Информация : Audio Coding 3
Идентификатор кодека : A_AC3
Продолжительность : 2 ч. 34 м.
Вид битрейта : Постоянный
Битрейт : 640 Кбит/сек
Каналы : 6 каналов
Расположение каналов : Front: L C R, Side: L R, LFE
Частота : 48,0 КГц
Частота кадров : 31,250 кадров/сек (1536 SPF)
Битовая глубина : 16 бит
Метод сжатия : С потерями
Задержка видео : -6 мс.
Размер потока : 708 Мбайт (2%)
Заголовок : Русскийас3 - Дубляж
Язык : Russian
ServiceKind/String : Complete Main
Default : Нет
Forced : Нет

Аудио #3
Идентификатор : 4
Формат : DTS
Формат/Информация : Digital Theater Systems
Профиль формата : MA / Core
Идентификатор кодека : A_DTS
Продолжительность : 2 ч. 34 м.
Вид битрейта : Переменный / Постоянный
Битрейт : 4500 Кбит/сек / 1509 Кбит/сек
Каналы : 8 каналов / 6 каналов
Расположение каналов : Front: L C R, Side: L R, Back: L R, LFE / Front: L C R, Side: L R, LFE
Частота : 48,0 КГц
Частота кадров : 93,750 кадра/сек (512 SPF)
Битовая глубина : 24 бит
Метод сжатия : Без потерь / Lossy
Задержка видео : 21 мс.
Размер потока : 4,86 Гбайт (11%)
Заголовок : Русский DTS-HD MA - АП (Гаврилов)
Язык : Russian
Default : Нет
Forced : Нет

Аудио #4
Идентификатор : 5
Формат : TrueHD
Профиль формата : TrueHD+Atmos / TrueHD
Идентификатор кодека : A_TRUEHD
Продолжительность : 2 ч. 34 м.
Вид битрейта : Переменный
Битрейт : 4298 Кбит/сек
Максимальный битрейт : 6528 Кбит/сек
Каналы : Object Based / 8 каналов
Расположение каналов : Object Based / Front: L C R, Side: L R, Back: L R, LFE
Частота : / 48,0 КГц
Частота кадров : 1200,000 кадров/сек (40 SPF)
Метод сжатия : Без потерь
Размер потока : 4,64 Гбайт (10%)
Заголовок : Английский - Орп-игинал
Язык : English
Default : Нет
Forced : Нет

Текст #1
Идентификатор : 6
Формат : UTF-8
Идентификатор кодека : S_TEXT/UTF8
Идентификатор кодека/Информация : UTF-8 Plain Text
Продолжительность : 2 ч. 33 м.
Битрейт : 0 бит/сек
ElementCount : 28
Размер потока : 1,02 Кбайт (0%)
Заголовок : Русские - форс.
Язык : Russian
Default : Да
Forced : Нет

Текст #2
Идентификатор : 7
Формат : UTF-8
Идентификатор кодека : S_TEXT/UTF8
Идентификатор кодека/Информация : UTF-8 Plain Text
Продолжительность : 2 ч. 33 м.
Битрейт : 96 бит/сек
ElementCount : 2321
Размер потока : 109 Кбайт (0%)
Заголовок : Русские
Язык : Russian
Default : Нет
Forced : Нет

Текст #3
Идентификатор : 8
Формат : UTF-8
Идентификатор кодека : S_TEXT/UTF8
Идентификатор кодека/Информация : UTF-8 Plain Text
Продолжительность : 2 ч. 24 м.
Битрейт : 64 бит/сек
ElementCount : 2276
Размер потока : 68,7 Кбайт (0%)
Заголовок : Английские
Язык : English
Default : Нет
Forced : Нет

Текст #4
Идентификатор : 9
Формат : UTF-8
Идентификатор кодека : S_TEXT/UTF8
Идентификатор кодека/Информация : UTF-8 Plain Text
Продолжительность : 2 ч. 25 м.
Битрейт : 73 бит/сек
ElementCount : 2620
Размер потока : 78,6 Кбайт (0%)
Заголовок : Английские - SDH
Язык : English
Default : Нет
Forced : Нет

Меню
00:00:00.000 : :Chapter 01
00:06:36.102 : :Chapter 02
00:14:03.466 : :Chapter 03
00:21:45.761 : :Chapter 04
00:27:53.253 : :Chapter 05
00:33:53.905 : :Chapter 06
00:40:08.905 : :Chapter 07
00:46:58.940 : :Chapter 08
00:53:25.784 : :Chapter 09
01:02:02.927 : :Chapter 10
01:08:47.080 : :Chapter 11
01:14:37.220 : :Chapter 12
01:20:10.179 : :Chapter 13
01:29:13.388 : :Chapter 14
01:37:59.496 : :Chapter 15
01:44:57.581 : :Chapter 16
01:51:15.501 : :Chapter 17
01:57:59.446 : :Chapter 18
02:06:09.728 : :Chapter 19
02:10:54.095 : :Chapter 20
02:16:01.153 : :Chapter 21
02:21:42.618 : :Chapter 22
02:25:17.289 : :Chapter 23
02:34:38.519 : :Chapter 24


pic pic pic
Для увеличения картинки щелкните мышкой по превью



pic pic pic pic pic pic

Этот торрент недоступен для скачивания без регистрации, однако доступен по публичной magnet-ссылке (источники с публичных трекеров). Перед использованием ссылки прочтите, пожалуйста Пользовательское соглашение, а также как можно дольше оставайтесь на раздаче! Для того, чтобы скачать сам торрент-файл (который видит больше источников), а также для того, чтобы поблагодарить релизера, вам необходимо зарегистрироваться. Если регистрироваться лень - вы можете также попробовать скачать релиз по нашим партнерским ссылкам ниже. Кроме того, зарегистрированным пользователям не показывается всплывающая реклама при скачивании.

[underverse.me].t99758.torrent
Трекер: Зарегистрирован   [ 12.03.2018 17:53 ]  

Статус: проверено (by 90ytr90 at 18.03.2018 13:38)
Поблагодарили: пока никто не поблагодарил...
Тип торрента: публичный - доступные источники с открытых трекеров: 
Размер: 45,04 GB (занимает 10,29 DVDR, для записи нужно 11 болванок DVDR/RW)
 
 
Похожие темы
Форум Тема Автор Торрент Отв. Посл. сооб.
Зарубежное кино [DVDRip, Low-Res HDRip, и т.д.] Трансформеры: Эпоха истребления / Transformers: Age of Extinction (Майкл Бэй / Michael Bay) [2014 г., фантастика, боевик, приключения, HDRip] Dub + Sub (Rus) 90ytr90
33 | 0

0 | 1014

22

17.11.2014 18:31

Зарубежное кино [DVDRip, Low-Res HDRip, и т.д.] Трансформеры: Эпоха истребления / Transformers: Age of Extinction (Майкл Бэй / Michael Bay) [2014 г., фантастика, боевик, приключения, HDRip] [IMAX] Dub 90ytr90
29 | 0

0 | 967

14

17.11.2014 18:46

Зарубежное кино [DVDRip, Low-Res HDRip, и т.д.] Трансформеры: Эпоха истребления / Transformers: Age Of Extinction (Майкл Бэй / Michael Bay) [2014 г., фантастика, боевик, приключения, BDRip] Dub 90ytr90
1 | 0

0 | 858

3

17.11.2014 18:57

Зарубежное кино [DVDRip, Low-Res HDRip, и т.д.] Трансформеры: Эпоха истребления / Transformers: Age Of Extinction (Майкл Бэй / Michael Bay) [2014 г., фантастика, боевик, приключения, BDRip] [IMAX] Dub 90ytr90
1 | 0

0 | 806

14

17.11.2014 19:28

Зарубежное кино [DVDRip, Low-Res HDRip, и т.д.] Трансформеры: Эпоха истребления / Transformers: Age Of Extinction (Майкл Бэй / Michael Bay) [2014 г., фантастика, боевик, приключения, BDRip-AVC] Dub + Original (Eng) + Subs 90ytr90
0 | 0

0 | 707

5

21.11.2014 13:52

Зарубежное кино [DVDRip, Low-Res HDRip, и т.д.] Трансформеры: Эпоха истребления / Transformers: Age Of Extinction (Майкл Бэй / Michael Bay) [2014 г., фантастика, боевик, приключения, BDRip-AVC] [IMAX] Dub + Original (Eng) + Subs 90ytr90
0 | 0

0 | 782

24

21.11.2014 15:30

Зарубежное кино [DVDRip, Low-Res HDRip, и т.д.] Трансформеры: Последний рыцарь / Transformers: The Last Knight (Майкл Бэй) [2017 г., боевик, фантастика, BDRip-AVC] Dub + Sub makkol
39 | 3

0 | 502

19

19.10.2017 15:05

Зарубежное кино [DVDRip, Low-Res HDRip, и т.д.] Трансформеры: Последний рыцарь / Transformers: The Last Knight (Майкл Бэй) [2017 г., боевик, фантастика, BDRip] Dub makkol
63 | 5

0 | 578

10

19.10.2017 15:13

Зарубежное кино [DVDRip, Low-Res HDRip, и т.д.] Трансформеры: Последний рыцарь / Transformers: The Last Knight (Майкл Бэй) [2017 г., боевик, фантастика, BDRip-AVC] Dub + Sub makkol
0 | 3

0 | 512

7

19.10.2017 15:52

Зарубежное кино [DVDRip, Low-Res HDRip, и т.д.] Трансформеры 5: Последний рыцарь / Transformers: The Last Knight (Майкл Бэй / Michael Bay) [2017 г., фантастика, боевик, триллер, приключения, BDRip] Dub + hardsub (Rus) 90ytr90
97 | 3

0 | 655

9

12.03.2018 17:26


Яндекс.Метрика powered by Sphinx


В Н И М А Н И Е
Сайт не распространяет и не хранит электронные версии произведений, а лишь бесплатно и без коммерческой выгоды (не требуя взамен платы,
SMS и т.д.) предоставляет доступ к создаваемому пользователями каталогу ссылок на торрент-файлы, которые содержат только списки хеш-сумм.
Убедительная просьба с жалобами обращаться напрямую к пользователю, разместившему торрент файл.

Вверх