Loading...
Error

Телохранитель киллера / The Hitman's Bodyguard (Патрик Хьюз / Patrick Hughes) [2017 г., боевик, комедия, BDRemux 1080p] [US Transfer] Dub + AVO (Чадов, без цензуры) + Original (Eng) + Sub (Eng)

Статистика раздачи
Размер:  41,03 GB   |    Зарегистрирован:  1 месяц 15 дней   |    Скачан:  2 раза

Полного источника не было: 17 дней

Сидов:  0  |  0 KB/s  ]   Личеров:  0  |  0 KB/s  ]

* - сиды/пиры с внешних источников

   
 
Автор Сообщение

90ytr90 

10-Мар-2018 13:30

Телохранитель киллера / The Hitman's Bodyguard
«Когда новый клиент – старый враг»

Страна: США, Китай, Болгария, Нидерланды
Год выпуска: 2017
Жанр: боевик, комедия
Продолжительность: 01:58:17
Озвучивание:
  • профессиональное (полное дублирование) [лицензия]
  • авторское (одноголосое закадровое) [М.Чадов, без цензуры]
  • оригинальная звуковая дорожка [английский]

Режиссёр: Патрик Хьюз / Patrick Hughes

В ролях: Райан Рейнольдс, Сэмюэл Л. Джексон, Элоди Юнг, Сальма Хайек, Гари Олдман, Жоаки де Алмейда (Jean Foucher), Юрий Колокольников (Ivan), Тине Жустра (Renata Casoria), Сэм Хэзелдайн, Ричард Э. Грант (Seifert), Цуваюки Саотомэ (Kurosawa), Рой Хилл (Helicopter Pilot / Newscaster)


Сюжет фильма:
Он — телохранитель мирового уровня. Его новая работа — охранять киллера, которого все мечтают убить. Он и сам с удовольствием прикончил бы этого гада. Но работа есть работа: смертельные враги в прошлом, они вынуждены объединиться в настоящем, чтобы выжить. Однако их методы настолько различны, а принципы противоположны, что вопрос выживания — под большим вопросом.

  • Дата мировой премьеры: 10 августа 2017
  • Дата российской премьеры: 17 августа 2017, «MEGOGO Distribution»
             
Качество видео: BDRemux 1080p
Формат: MKV
Видео: AVC, 1920x1080 (16:9), 34.7 Mbps, 23.976 (24000/1001) fps, 0.698 bit/pixel
Аудио #1: DTS-HD MA, 3840 kbps/1509 kbps, 6 ch, 48 kHz, Dub [лицензия]
Аудио #2: AC3, 640 kbps, 6 ch, 48 kHz, Dub [лицензия]
Аудио #3: DTS-HD MA, 5306 kbps/1509 kbps, 8 ch/6 ch, 48 kHz, AVO [М.Чадов, без цензуры]
Аудио #4: TrueHD, 4394 kbps, 7704 kbps, 8 ch, 48 kHz, Original [English]
Аудио #5: AC3, 640 kbps, 6 ch, 48 kHz, Original [English]
Субтитры: English (full)
Навигация по главам: есть (16)

Сборка: СелезеньS
General
Unique ID : 194763695931580499301308375730228100403 (0x92861F97A0E061A6B0718BC6C00CFD33)
Complete name : G:The.Hitmans.Bodyguard.2017.Lic.BDREMUX.1080p.ExKinoRay.mkv
Format : Matroska
Format version : Version 4 / Version 2
File size : 41.0 GiB
Duration : 1 h 58 min
Overall bit rate mode : Variable
Overall bit rate : 49.7 Mb/s
Movie name : Release by ExKinoRay
Encoded date : UTC 2017-12-01 02:34:00
Writing application : mkvmerge v17.0.0 ('Be Ur Friend') 64-bit
Writing library : libebml v1.3.5 + libmatroska v1.4.8

Video
ID : 1
Format : AVC
Format/Info : Advanced Video Codec
Format profile : High@L4.1
Format settings : CABAC / 4 Ref Frames
Format settings, CABAC : Yes
Format settings, RefFrames : 4 frames
Codec ID : V_MPEG4/ISO/AVC
Duration : 1 h 58 min
Bit rate mode : Variable
Bit rate : 34.7 Mb/s
Maximum bit rate : 37.0 Mb/s
Width : 1 920 pixels
Height : 1 080 pixels
Display aspect ratio : 16:9
Frame rate mode : Constant
Frame rate : 23.976 (24000/1001) FPS
Color space : YUV
Chroma subsampling : 4:2:0
Bit depth : 8 bits
Scan type : Progressive
Bits/(Pixel*Frame) : 0.698
Stream size : 28.7 GiB (70%)
Language : English
Default : Yes
Forced : No

Audio #1
ID : 2
Format : DTS
Format/Info : Digital Theater Systems
Format profile : MA / Core
Mode : 16
Format settings, Endianness : Big
Codec ID : A_DTS
Duration : 1 h 58 min
Bit rate mode : Variable / Constant
Bit rate : 3 840 kb/s / 1 509 kb/s
Channel(s) : 6 channels
Channel positions : Front: L C R, Side: L R, LFE
Sampling rate : 48.0 kHz
Frame rate : 93.750 FPS (512 SPF)
Bit depth : 24 bits
Compression mode : Lossless / Lossy
Stream size : 3.21 GiB (8%)
Title : Dub [License]
Language : Russian
Default : Yes
Forced : No

Audio #2
ID : 3
Format : AC-3
Format/Info : Audio Coding 3
Format settings, Endianness : Big
Codec ID : A_AC3
Duration : 1 h 58 min
Bit rate mode : Constant
Bit rate : 640 kb/s
Channel(s) : 6 channels
Channel positions : Front: L C R, Side: L R, LFE
Sampling rate : 48.0 kHz
Frame rate : 31.250 FPS (1536 SPF)
Bit depth : 16 bits
Compression mode : Lossy
Stream size : 541 MiB (1%)
Title : Dub [License]
Language : Russian
Service kind : Complete Main
Default : No
Forced : No

Audio #3
ID : 4
Format : DTS
Format/Info : Digital Theater Systems
Format profile : MA / Core
Mode : 16
Format settings, Endianness : Big
Codec ID : A_DTS
Duration : 1 h 58 min
Bit rate mode : Variable / Constant
Bit rate : 5 306 kb/s / 1 509 kb/s
Channel(s) : 8 channels / 6 channels
Channel positions : Front: L C R, Side: L R, Back: L R, LFE / Front: L C R, Side: L R, LFE
Sampling rate : 48.0 kHz
Frame rate : 93.750 FPS (512 SPF)
Bit depth : 24 bits
Compression mode : Lossless / Lossy
Stream size : 4.38 GiB (11%)
Title : AVO [Chadov]
Language : Russian
Default : No
Forced : No

Audio #4
ID : 5
Format : TrueHD
Format profile : TrueHD+Atmos / TrueHD
Codec ID : A_TRUEHD
Duration : 1 h 58 min
Bit rate mode : Variable
Bit rate : 4 394 kb/s
Maximum bit rate : 7 704 kb/s
Channel(s) : Object Based / 8 channels
Channel positions : Object Based / Front: L C R, Side: L R, Back: L R, LFE
Sampling rate : / 48.0 kHz
Frame rate : 1 200.000 FPS (40 SPF)
Compression mode : Lossless
Stream size : 3.63 GiB (9%)
Title : Original
Language : English
Default : No
Forced : No

Audio #5
ID : 6
Format : AC-3
Format/Info : Audio Coding 3
Format settings, Endianness : Big
Codec ID : A_AC3
Duration : 1 h 58 min
Bit rate mode : Constant
Bit rate : 640 kb/s
Channel(s) : 6 channels
Channel positions : Front: L C R, Side: L R, LFE
Sampling rate : 48.0 kHz
Frame rate : 31.250 FPS (1536 SPF)
Bit depth : 16 bits
Compression mode : Lossy
Stream size : 541 MiB (1%)
Language : English
Service kind : Complete Main
Default : No
Forced : No

Text
ID : 7
Format : UTF-8
Codec ID : S_TEXT/UTF8
Codec ID/Info : UTF-8 Plain Text
Duration : 1 h 56 min
Bit rate : 59 b/s
Count of elements : 1486
Stream size : 51.0 KiB (0%)
Title : Full
Language : English
Default : No
Forced : No

Menu
00:00:00.000 : en:00:00:00.000
00:07:22.942 : en:00:07:22.942
00:13:53.875 : en:00:13:53.875
00:20:23.305 : en:00:20:23.305
00:27:20.138 : en:00:27:20.138
00:32:53.513 : en:00:32:53.513
00:38:25.428 : en:00:38:25.428
00:46:52.977 : en:00:46:52.977
00:56:39.354 : en:00:56:39.354
01:00:23.370 : en:01:00:23.370
01:09:11.397 : en:01:09:11.397
01:16:34.381 : en:01:16:34.381
01:21:11.241 : en:01:21:11.241
01:27:45.093 : en:01:27:45.093
01:35:06.743 : en:01:35:06.743
01:40:37.740 : en:01:40:37.740


pic pic pic
Для увеличения картинки щелкните мышкой по превью



pic pic pic pic pic

Этот торрент недоступен для скачивания без регистрации, однако доступен по публичной magnet-ссылке (источники с публичных трекеров). Перед использованием ссылки прочтите, пожалуйста Пользовательское соглашение, а также как можно дольше оставайтесь на раздаче! Для того, чтобы скачать сам торрент-файл (который видит больше источников), а также для того, чтобы поблагодарить релизера, вам необходимо зарегистрироваться. Если регистрироваться лень - вы можете также попробовать скачать релиз по нашим партнерским ссылкам ниже. Кроме того, зарегистрированным пользователям не показывается всплывающая реклама при скачивании.

[underverse.me].t99659.torrent
Трекер: Зарегистрирован   [ 10.03.2018 13:30 ]  

Статус: проверено (by 90ytr90 at 10.03.2018 13:49)
Поблагодарили: пока никто не поблагодарил...
Тип торрента: публичный - доступные источники с открытых трекеров: 
Размер: 41,03 GB (занимает 9,37 DVDR, для записи нужно 10 болванок DVDR/RW)
 
 
Похожие темы
Форум Тема Автор Торрент Отв. Посл. сооб.
Зарубежное кино [DVDRip, Low-Res HDRip, и т.д.] Телохранитель / London Boulevard (Уильям Монахэн) [2010 г., драма, криминал, BDRip] Dub + Original garry
1 | 0

0 | 683

15

18.12.2012 19:42

T Зарубежное кино [DVDRip, Low-Res HDRip, и т.д.] Телохранитель / The Bodyguard (Юэ Сун / Yue Song) [2016 г., боевик, WEB-DLRip] MVO (КОЛОБОК) 90ytr90
0 | 0

0 | 268

4

10.07.2017 13:07

T Зарубежное кино [DVDRip, Low-Res HDRip, и т.д.] Телохранитель / Maryland (Алис Винокур) [2015 г., триллер, драма, HDRip] MVO makkol
41 | 0

0 | 895

46

14.02.2016 21:43

T Зарубежное кино [DVDRip, Low-Res HDRip, и т.д.] Телохранитель киллера / The Hitman's Bodyguard (Патрик Хьюз) [2017 г., боевик, комедия, WEB-DLRip] Dub (звук с TS) makkol
5 | 0

0 | 1076

18

27.08.2017 14:58

T Зарубежное кино [DVDRip, Low-Res HDRip, и т.д.] Телохранитель киллера / The Hitman's Bodyguard (Патрик Хьюз) [2017 г., боевик, комедия, WEB-DLRip] Dub (звук с TS) makkol
6 | 0

0 | 1281

33

27.08.2017 15:06

T Зарубежное кино [DVDRip, Low-Res HDRip, и т.д.] Телохранитель киллера / The Hitman's Bodyguard (Патрик Хьюз) [2017 г., боевик, комедия, WEB-DLRip] MVO (@MUZOBOZ@) makkol
13 | 4

0 | 1830

59

31.08.2017 14:47

T Зарубежное кино [DVDRip, Low-Res HDRip, и т.д.] Телохранитель киллера / The Hitman's Bodyguard (Патрик Хьюз) [2017 г., боевик, комедия, WEB-DLRip] Dub (Line) makkol
211 | 0

0 | 1875

39

08.09.2017 21:52

T Зарубежное кино [DVDRip, Low-Res HDRip, и т.д.] Телохранитель киллера / The Hitman's Bodyguard (Патрик Хьюз) [2017 г., боевик, комедия, WEB-DLRip] Dub (Line) makkol
10 | 0

0 | 1258

34

08.09.2017 21:59

T Зарубежное кино [DVDRip, Low-Res HDRip, и т.д.] Телохранитель киллера / The Hitman's Bodyguard (Патрик Хьюз) [2017 г., боевик, комедия, HDRip] Dub (iTunes) makkol
102 | 5

0 | 1782

34

10.11.2017 21:20

T Зарубежное кино [DVDRip, Low-Res HDRip, и т.д.] Телохранитель киллера / The Hitman's Bodyguard (Патрик Хьюз) [2017 г., боевик, комедия, HDRip] Dub (iTunes) + Original makkol
1 | 0

0 | 1489

28

10.11.2017 21:28

Ulvi_17 

11-Мар-2018 10:02

Классный фильм. Спасибо! :Yahoo!:

Яндекс.Метрика powered by Sphinx


В Н И М А Н И Е
Сайт не распространяет и не хранит электронные версии произведений, а лишь бесплатно и без коммерческой выгоды (не требуя взамен платы,
SMS и т.д.) предоставляет доступ к создаваемому пользователями каталогу ссылок на торрент-файлы, которые содержат только списки хеш-сумм.
Убедительная просьба с жалобами обращаться напрямую к пользователю, разместившему торрент файл.

Вверх