Loading...
Error

Взрывная блондинка / Atomic Blonde (Дэвид Литч / David Leitch) [2017 г., боевик, триллер, детектив, BDRemux 1080p] Dub (iTunes) + 3xAVO (Дохалов, Есарев, Живов) + DVO + Original (Eng) + Sub (Rus, Eng)

Статистика раздачи
Размер:  41,8 GB   |    Зарегистрирован:  2 месяца 15 дней   |    Скачан:  3 раза
Сидов:  1  |  673 KB/s  ]   Личеров:  0  |  0 KB/s  ]

* - сиды/пиры с внешних источников

   
 
Автор Сообщение

90ytr90 

08-Мар-2018 10:03

Взрывная блондинка / Atomic Blonde
«Talents can be overrated»

Страна: США
Год выпуска: 2017
Жанр: боевик, триллер, детектив
Продолжительность: 01:55:44
Озвучивание:
  • профессиональное (полное дублирование) [iTunes]
  • авторское (одноголосое закадровое) [В.Дохалов]
  • авторское (одноголосое закадровое) [Д.Есарев, без цензуры]
  • авторское (одноголосое закадровое) [Ю.Живов]
  • любительское (двухголосое закадровое) [Антон Lord666 Емельянов и Оксана Кремлякова]
  • оригинальная звуковая дорожка [английский]

Режиссёр: Дэвид Литч / David Leitch

В ролях: Шарлиз Терон, Джеймс МакЭвой, Эдди Марсан (Spyglass), Джон Гудман, Тоби Джонс, Джеймс Фолкнер, Роланд Мюллер (Aleksander Bremovych), София Бутелла, Билл Скарсгард (Merkel), Сэм Харгрейв (James Gasciogne), Йоуханнес Хёйкьюр Йоуханнессон (Yuri Bakhtin), Тиль Швайгер (Watchmaker)


Сюжет фильма:
Агент Лоррейн Бротон, бриллиант в короне Секретной разведывательной службы Ее Величества, не просто мастер шпионажа: она бомбически сексуальна, взрывоопасна и использует весь арсенал своих уникальных умений во время невыполнимых миссий. В неспокойном Берлине, куда ее направляют с заданием вернуть бесценное досье, она вынуждена объединиться с агентом под прикрытием Дэвидом Персивалем. Вместе им предстоит проложить путь через тернии смертельных шпионских игр.

  • Дата мировой премьеры: 12 марта 2017
  • Дата российской премьеры: 27 июля 2017, «Централ Партнершип»
  • Цифровой релиз: 24 октября 2017, «Централ Партнершип»
             
Качество видео: BDRemux 1080p
Формат: MKV
Видео: AVC, 1920x1080 (16:9), 32.8 Mbps, 23.976 (24000/1001) fps, 0.660 bit/pixel
Аудио #1: AC3, 384 kbps, 6 ch, 48 kHz, Dub [iTunes]
Аудио #2: DTS-HD MA, 4196 kbps/1509 kbps, 8 ch/6 ch, 48 kHz, AVO [В.Дохалов]
Аудио #3: DTS-HD MA, 4269 kbps/1509 kbps, 8 ch/6 ch, 48 kHz, AVO [Д.Есарев, без цензуры]
Аудио #4: DTS-HD MA, 4311 kbps/1509 kbps, 8 ch/6 ch, 48 kHz, AVO [Ю.Живов]
Аудио #5: DTS, 1510 kbps, 6 ch, 48 kHz, DVO [Антон Lord666 Емельянов и Оксана Кремлякова]
Аудио #6: DTS-HD MA, 4671 kbps/1509 kbps, 8 ch/6 ch, 48 kHz, Original [English]
Субтитры: Russian (forced, full), English (full)
Навигация по главам: есть (20)

Общее
Уникальный идентификатор : 225309176959453589378015182311554644430 (0xA980F814A743545AA946CB96BBDD79CE)
Полное имя : D:\РЕМУКС!!!!!\Взрывная блондинка. BDRemux.mkv
Формат : Matroska
Версия формата : Version 4 / Version 2
Размер файла : 41,8 Гбайт
Продолжительность : 1 ч. 54 м.
Режим общего битрейта : Переменный
Общий поток : 52,2 Мбит/сек
Название фильма : Взрывная блондинка. BDRemux. thx:SPOMOPS
Дата кодирования : UTC 2018-03-08 06:19:39
Программа кодирования : mkvmerge v8.3.0 ('Over the Horizon') 64bit
Библиотека кодирования : libebml v1.3.1 + libmatroska v1.4.2

Видео
Идентификатор : 1
Формат : AVC
Формат/Информация : Advanced Video Codec
Профиль формата : High@L4.1
Настройки формата : CABAC / 4 Ref Frames
Параметр CABAC формата : Да
Параметр RefFrames формата : 4 кадра
Идентификатор кодека : V_MPEG4/ISO/AVC
Продолжительность : 1 ч. 54 м.
Вид битрейта : Переменный
Битрейт : 32,8 Мбит/сек
Максимальный битрейт : 34,0 Мбит/сек
Ширина : 1920 пикселей
Высота : 1080 пикселей
Соотношение сторон : 16:9
Режим частоты кадров : Постоянный
Частота кадров : 23,976 (24000/1001) кадра/сек
Цветовое пространство : YUV
Субдискретизация насыщенности : 4:2:0
Битовая глубина : 8 бит
Тип развёртки : Прогрессивная
Бит/(Пиксели*Кадры) : 0.660
Размер потока : 26,3 Гбайт (63%)
Заголовок : MPEG-4 AVC / 32813 kbps / 1920x1080 / 23.976 fps
Язык : English
Default : Да
Forced : Нет

Аудио #1
Идентификатор : 2
Формат : AC-3
Формат/Информация : Audio Coding 3
Идентификатор кодека : A_AC3
Продолжительность : 1 ч. 54 м.
Вид битрейта : Постоянный
Битрейт : 384 Кбит/сек
Каналы : 6 каналов
Расположение каналов : Front: L C R, Side: L R, LFE
Частота : 48,0 КГц
Частота кадров : 31,250 кадров/сек (1536 SPF)
Битовая глубина : 16 бит
Метод сжатия : С потерями
Размер потока : 315 Мбайт (1%)
Заголовок : Русский ас3 - Дубляж
Язык : Russian
ServiceKind/String : Complete Main
Default : Да
Forced : Нет

Аудио #2
Идентификатор : 3
Формат : DTS
Формат/Информация : Digital Theater Systems
Профиль формата : MA / Core
Идентификатор кодека : A_DTS
Продолжительность : 1 ч. 54 м.
Вид битрейта : Переменный / Постоянный
Битрейт : 4196 Кбит/сек / 1509 Кбит/сек
Каналы : 8 каналов / 6 каналов
Расположение каналов : Front: L C R, Side: L R, Back: L R, LFE / Front: L C R, Side: L R, LFE
Частота : 48,0 КГц
Частота кадров : 93,750 кадра/сек (512 SPF)
Битовая глубина : 24 бит
Метод сжатия : Без потерь / Lossy
Размер потока : 3,36 Гбайт (8%)
Заголовок : Русский DTS-HD MA - АП (Дохалов)
Язык : Russian
Default : Нет
Forced : Нет

Аудио #3
Идентификатор : 4
Формат : DTS
Формат/Информация : Digital Theater Systems
Профиль формата : MA / Core
Идентификатор кодека : A_DTS
Продолжительность : 1 ч. 54 м.
Вид битрейта : Переменный / Постоянный
Битрейт : 4269 Кбит/сек / 1509 Кбит/сек
Каналы : 8 каналов / 6 каналов
Расположение каналов : Front: L C R, Side: L R, Back: L R, LFE / Front: L C R, Side: L R, LFE
Частота : 48,0 КГц
Частота кадров : 93,750 кадра/сек (512 SPF)
Битовая глубина : 24 бит
Метод сжатия : Без потерь / Lossy
Задержка видео : 3 мс.
Размер потока : 3,42 Гбайт (8%)
Заголовок : Русский DTS-HD MA - АП (Есарев)
Язык : Russian
Default : Нет
Forced : Нет

Аудио #4
Идентификатор : 5
Формат : DTS
Формат/Информация : Digital Theater Systems
Профиль формата : MA / Core
Идентификатор кодека : A_DTS
Продолжительность : 1 ч. 54 м.
Вид битрейта : Переменный / Постоянный
Битрейт : 4311 Кбит/сек / 1509 Кбит/сек
Каналы : 8 каналов / 6 каналов
Расположение каналов : Front: L C R, Side: L R, Back: L R, LFE / Front: L C R, Side: L R, LFE
Частота : 48,0 КГц
Частота кадров : 93,750 кадра/сек (512 SPF)
Битовая глубина : 24 бит
Метод сжатия : Без потерь / Lossy
Размер потока : 3,46 Гбайт (8%)
Заголовок : Русский DTS-HD MA - АП (Живов)
Язык : Russian
Default : Нет
Forced : Нет

Аудио #5
Идентификатор : 6
Формат : DTS
Формат/Информация : Digital Theater Systems
Идентификатор кодека : A_DTS
Продолжительность : 1 ч. 54 м.
Вид битрейта : Постоянный
Битрейт : 1510 Кбит/сек
Каналы : 6 каналов
Расположение каналов : Front: L C R, Side: L R, LFE
Частота : 48,0 КГц
Частота кадров : 93,750 кадра/сек (512 SPF)
Битовая глубина : 24 бит
Метод сжатия : С потерями
Размер потока : 1,21 Гбайт (3%)
Заголовок : Русский DTS - ЛД
Язык : Russian
Default : Нет
Forced : Нет

Аудио #6
Идентификатор : 7
Формат : DTS
Формат/Информация : Digital Theater Systems
Профиль формата : X / MA / Core
Идентификатор кодека : A_DTS
Продолжительность : 1 ч. 54 м.
Вид битрейта : Переменный / Переменный / Постоянный
Битрейт : 4671 Кбит/сек / 4671 Кбит/сек / 1509 Кбит/сек
Каналы : Object Based / 8 каналов / 6 каналов
Расположение каналов : Object Based / Front: L C R, Side: L R, Back: L R, LFE / Front: L C R, Side: L R, LFE
Частота : / 48,0 КГц / 48,0 КГц
Частота кадров : 93,750 кадра/сек (512 SPF)
Битовая глубина : / 24 бит / 24 бит
Метод сжатия : / Lossless / Lossy
Размер потока : 3,74 Гбайт (9%)
Заголовок : Английский DTS-HD MA - Оригинал
Язык : English
Default : Нет
Forced : Нет

Текст #1
Идентификатор : 8
Формат : UTF-8
Идентификатор кодека : S_TEXT/UTF8
Идентификатор кодека/Информация : UTF-8 Plain Text
Продолжительность : 1 ч. 47 м.
Битрейт : 2 бит/сек
ElementCount : 42
Размер потока : 1,64 Кбайт (0%)
Заголовок : Русские - Forced
Язык : Russian
Default : Да
Forced : Нет

Текст #2
Идентификатор : 9
Формат : UTF-8
Идентификатор кодека : S_TEXT/UTF8
Идентификатор кодека/Информация : UTF-8 Plain Text
Продолжительность : 1 ч. 47 м.
Битрейт : 63 бит/сек
ElementCount : 1083
Размер потока : 50,5 Кбайт (0%)
Заголовок : Русские - Full
Язык : Russian
Default : Нет
Forced : Нет

Текст #3
Идентификатор : 10
Формат : UTF-8
Идентификатор кодека : S_TEXT/UTF8
Идентификатор кодека/Информация : UTF-8 Plain Text
Продолжительность : 1 ч. 47 м.
Битрейт : 37 бит/сек
ElementCount : 974
Размер потока : 29,3 Кбайт (0%)
Заголовок : Английские - Full
Язык : English
Default : Нет
Forced : Нет

Меню
00:00:00.000 : en:Chapter 1
00:06:47.990 : en:Chapter 2
00:11:03.162 : en:Chapter 3
00:18:17.221 : en:Chapter 4
00:24:15.579 : en:Chapter 5
00:27:47.165 : en:Chapter 6
00:32:50.009 : en:Chapter 7
00:36:20.094 : en:Chapter 8
00:40:46.152 : en:Chapter 9
00:47:55.664 : en:Chapter 10
00:53:13.481 : en:Chapter 11
00:59:54.090 : en:Chapter 12
01:03:32.767 : en:Chapter 13
01:08:03.788 : en:Chapter 14
01:10:52.414 : en:Chapter 15
01:18:27.452 : en:Chapter 16
01:24:28.271 : en:Chapter 17
01:32:44.267 : en:Chapter 18
01:42:06.245 : en:Chapter 19
01:48:21.077 : en:Chapter 20


pic pic pic
Для увеличения картинки щелкните мышкой по превью



pic pic pic pic pic pic

Этот торрент недоступен для скачивания без регистрации, однако доступен по публичной magnet-ссылке (источники с публичных трекеров). Перед использованием ссылки прочтите, пожалуйста Пользовательское соглашение, а также как можно дольше оставайтесь на раздаче! Для того, чтобы скачать сам торрент-файл (который видит больше источников), а также для того, чтобы поблагодарить релизера, вам необходимо зарегистрироваться. Если регистрироваться лень - вы можете также попробовать скачать релиз по нашим партнерским ссылкам ниже. Кроме того, зарегистрированным пользователям не показывается всплывающая реклама при скачивании.

[underverse.me].t99392.torrent
Трекер: Зарегистрирован   [ 08.03.2018 10:03 ]  

Статус: T временная (by 90ytr90 at 08.03.2018 11:05)
Поблагодарили: пока никто не поблагодарил...
Тип торрента: публичный - доступные источники с открытых трекеров: 
Размер: 41,8 GB (занимает 9,55 DVDR, для записи нужно 10 болванок DVDR/RW)
 
 
Похожие темы
Форум Тема Автор Торрент Отв. Посл. сооб.
© Зарубежное кино [DVDRip, Low-Res HDRip, и т.д.] Взрывная блондинка / Atomic Blonde (Дэвид Литч) [2017 г., боевик, триллер, детектив, WEB-DLRip] Dub (iTunes) + Original makkol
3 | 0
2,05 GB

2 | 738

42

02.11.2017 16:46

© Зарубежное кино [DVDRip, Low-Res HDRip, и т.д.] Взрывная блондинка / Atomic Blonde (Дэвид Литч) [2017 г., боевик, триллер, детектив, WEB-DLRip] Dub (iTunes) makkol
38 | 4
1,46 GB

1 | 792

30

26.10.2017 14:38

© Зарубежное кино [DVDRip, Low-Res HDRip, и т.д.] Взрывная блондинка / Atomic Blonde (Дэвид Литч) [2017 г., боевик, триллер, детектив, HDTVRip] Dub (звук с TS) makkol
66 | 1
1,46 GB

0 | 899

22

13.10.2017 20:51

© Зарубежное кино [DVDRip, Low-Res HDRip, и т.д.] Взрывная блондинка / Atomic Blonde (Дэвид Литч) [2017 г., боевик, триллер, детектив, HDTVRip] MVO (@MUZOBOZ@) makkol
25 | 2
1,46 GB

0 | 1048

41

15.10.2017 14:27

Зарубежное кино [DVDRip, Low-Res HDRip, и т.д.] Взрывная блондинка / Atomic Blonde (Дэвид Литч / David Leitch) [2017 г., боевик, триллер, детектив, BDRip] AVO (Есарев, без цензуры) 90ytr90
33 | 3

0 | 275

6

08.03.2018 12:37

T Зарубежное кино [DVDRip, Low-Res HDRip, и т.д.] Взрывная блондинка / Atomic Blonde (Дэвид Литч / David Leitch) [2017 г., боевик, триллер, детектив, BDRip-AVC] Dub (iTunes) + Sub (Rus) 90ytr90
30 | 2

0 | 320

18

08.03.2018 12:47

T Зарубежное кино [DVDRip, Low-Res HDRip, и т.д.] Взрывная блондинка / Atomic Blonde (Дэвид Литч / David Leitch) [2017 г., боевик, триллер, детектив, BDRip-AVC] Dub (iTunes) + Original (Eng) + Sub (Rus, Eng) 90ytr90
55 | 3

0 | 392

11

08.03.2018 12:54

© Зарубежное кино [HDDVDRip / BDRip / WEB-DL / HDTV 1080/720р] Взрывная блондинка / Atomic Blonde (Дэвид Литч) [2017 г., боевик, триллер, детектив, HDTVRip 720p] Dub (звук с TS) makkol
6 | 3
3,84 GB

0 | 815

22

13.10.2017 20:59

© Зарубежное кино [HDDVDRip / BDRip / WEB-DL / HDTV 1080/720р] Взрывная блондинка / Atomic Blonde (Дэвид Литч) [2017 г., боевик, триллер, детектив, HDTVRip 1080p] MVO (@MUZOBOZ@) makkol
22 | 4
4,31 GB

0 | 1459

34

15.10.2017 14:38

© Зарубежное кино [HDDVDRip / BDRip / WEB-DL / HDTV 1080/720р] Взрывная блондинка / Atomic Blonde (Дэвид Литч) [2017 г., боевик, триллер, детектив, WEB-DL 1080p] Dub (iTunes) + Original makkol
2 | 0
7,1 GB

1 | 941

48

26.10.2017 15:01


Яндекс.Метрика powered by Sphinx


В Н И М А Н И Е
Сайт не распространяет и не хранит электронные версии произведений, а лишь бесплатно и без коммерческой выгоды (не требуя взамен платы,
SMS и т.д.) предоставляет доступ к создаваемому пользователями каталогу ссылок на торрент-файлы, которые содержат только списки хеш-сумм.
Убедительная просьба с жалобами обращаться напрямую к пользователю, разместившему торрент файл.

Вверх