Loading...
Error

Ужас Амитивилля: Пробуждение / Amityville: The Awakening (Франк Халфун / Franck Khalfoun) [2017 г., ужасы, триллер, BDRemux 1080p] [US Transfer] Dub + Original (Eng) + Sub (Eng)

Статистика раздачи
Размер:  12,37 GB   |    Зарегистрирован:  2 месяца 16 дней   |    Скачан:  1 раз

Полного источника не было: 2 месяца 16 дней

Сидов:  0  |  0 KB/s  ]   Личеров:  0  |  0 KB/s  ]

* - сиды/пиры с внешних источников

   
 
Автор Сообщение

90ytr90 

06-Мар-2018 10:03

Ужас Амитивилля: Пробуждение / Amityville: The Awakening


Название: Ужас Амитивилля: Пробуждение
Оригинальное название: Amityville: The Awakening
Год выпуска: 2017
Жанр: Ужасы, триллер
Режиссер-постановщик: Франк Халфун
В главных ролях: Белла Торн, Кэмерон Монахэн, Дженнифер Джейсон Ли, Маккенна Грэйс, Дженнифер Моррисон, Томас Манн, Кертвуд Смит, Тейлор Спрейтлер, Ава Сантана, Хантер Голигоски

Описание:
Мать-одиночка переезжает с тремя детьми в загадочный дом, даже не подозревая о кровавом прошлом их нового жилища. У каждого дома есть история. У этого — страшная тайна.



Страна: США
Студия: Blumhouse Productions, Dimension Films, Miramax, Panic Ventures
Продолжительность: 01:27:04
Перевод: Дублированный | Лицензия

Качество: BDRemux 1080p
Видео: MPEG-4 AVC, 1920x1080, 13.6 Mbit/s, 23.976 fps
Звук:
Аудио #01: 48 kHz, DTS-HD MA, 5.1, 3597 Kbps | Дублированный | RUS |
Аудио #03: 48 kHz, DTS-HD MA, 5.1, 3172 Kbps | Оригинал | ENG |
Субтитры: Английские

Полное имя : Amityville.The.Awakening.2017.D.BDREMUX.1080p.ExKinoRay.mkv
Формат : Matroska
Версия формата : Version 4 / Version 2
Размер файла : 12,4 Гбайт
Продолжительность : 1 ч. 27 м.
Режим общего битрейта : Переменный
Общий поток : 20,3 Мбит/сек
Название фильма : Amityville The Awakening 2017 from ExKinoRay
Дата кодирования : UTC 2017-12-10 21:12:13
Программа кодирования : mkvmerge v18.0.0 ('Apricity') 64-bit
Библиотека кодирования : libebml v1.3.5 + libmatroska v1.4.8

Видео
Идентификатор : 1
Формат : AVC
Формат/Информация : Advanced Video Codec
Профиль формата : High@L4.1
Настройки формата : CABAC / 3 Ref Frames
Параметр CABAC формата : Да
Параметр RefFrames формата : 3 кадра
Параметр GOP формата : M=3, N=12
Идентификатор кодека : V_MPEG4/ISO/AVC
Продолжительность : 1 ч. 27 м.
Вид битрейта : Переменный
Битрейт : 13,6 Мбит/сек
Максимальный битрейт : 35,0 Мбит/сек
Ширина : 1920 пикселей
Высота : 1080 пикселей
Соотношение сторон : 16:9
Режим частоты кадров : Постоянный
Частота кадров : 23,976 (24000/1001) кадра/сек
Стандарт вещания : NTSC
Цветовое пространство : YUV
Субдискретизация насыщенности : 4:2:0
Битовая глубина : 8 бит
Тип развёртки : Прогрессивная
Бит/(Пиксели*Кадры) : 0.273
Размер потока : 8,25 Гбайт (67%)
Язык : English
Default : Да
Forced : Нет
Цветовой диапазон : Limited
Основные цвета : BT.709
Характеристики трансфера : BT.709
Коэффициенты матрицы : BT.709

Аудио #1
Идентификатор : 2
Формат : DTS
Формат/Информация : Digital Theater Systems
Профиль формата : MA / Core
Режим : 16
Параметр Endianness формата : Big
Идентификатор кодека : A_DTS
Продолжительность : 1 ч. 27 м.
Вид битрейта : Переменный / Постоянный
Битрейт : 3597 Кбит/сек / 1509 Кбит/сек
Каналы : 6 каналов
Расположение каналов : Front: L C R, Side: L R, LFE
Частота : 48,0 КГц
Частота кадров : 93,750 кадра/сек (512 SPF)
Битовая глубина : 24 бит
Метод сжатия : Без потерь / Lossy
Размер потока : 2,19 Гбайт (18%)
Заголовок : Dub [License]
Язык : Russian
Default : Да
Forced : Нет

Аудио #2
Идентификатор : 3
Формат : DTS
Формат/Информация : Digital Theater Systems
Профиль формата : MA / Core
Режим : 16
Параметр Endianness формата : Big
Идентификатор кодека : A_DTS
Продолжительность : 1 ч. 27 м.
Вид битрейта : Переменный / Постоянный
Битрейт : 3172 Кбит/сек / 1509 Кбит/сек
Каналы : 6 каналов
Расположение каналов : Front: L C R, Side: L R, LFE
Частота : 48,0 КГц
Частота кадров : 93,750 кадра/сек (512 SPF)
Битовая глубина : 24 бит
Метод сжатия : Без потерь / Lossy
Размер потока : 1,93 Гбайт (16%)
Заголовок : Original
Язык : English
Default : Нет
Forced : Нет

Текст
Идентификатор : 4
Формат : UTF-8
Идентификатор кодека : S_TEXT/UTF8
Идентификатор кодека/Информация : UTF-8 Plain Text
Продолжительность : 1 ч. 25 м.
Битрейт : 48 бит/сек
ElementCount : 1229
Размер потока : 30,4 Кбайт (0%)
Заголовок : SDH
Язык : English
Default : Нет
Forced : Нет

Меню
00:00:00.000 : en:Chapter 1
00:01:37.430 : en:Chapter 2
00:06:23.883 : en:Chapter 3
00:11:18.719 : en:Chapter 4
00:17:59.995 : en:Chapter 5
00:23:22.192 : en:Chapter 6
00:29:34.522 : en:Chapter 7
00:34:45.291 : en:Chapter 8
00:39:14.060 : en:Chapter 9
00:45:24.972 : en:Chapter 10
00:49:53.740 : en:Chapter 11
00:55:09.014 : en:Chapter 12
01:00:30.001 : en:Chapter 13
01:07:06.105 : en:Chapter 14
01:14:40.142 : en:Chapter 15
01:22:31.738 : en:Chapter 16
Релиз от: Автор релиза:
Подпишись на меня, кликни по картинке [b]> : [/b]

Этот торрент недоступен для скачивания без регистрации, однако доступен по публичной magnet-ссылке (источники с публичных трекеров). Перед использованием ссылки прочтите, пожалуйста Пользовательское соглашение, а также как можно дольше оставайтесь на раздаче! Для того, чтобы скачать сам торрент-файл (который видит больше источников), а также для того, чтобы поблагодарить релизера, вам необходимо зарегистрироваться. Если регистрироваться лень - вы можете также попробовать скачать релиз по нашим партнерским ссылкам ниже. Кроме того, зарегистрированным пользователям не показывается всплывающая реклама при скачивании.

[underverse.me].t99169.torrent
Трекер: Зарегистрирован   [ 06.03.2018 10:03 ]  

Статус: * не проверено
Поблагодарили: пока никто не поблагодарил...
Тип торрента: публичный - доступные источники с открытых трекеров: 
Размер: 12,37 GB (занимает 2,83 DVDR, для записи нужно 3 болванки DVDR/RW)
 
 
Похожие темы
Форум Тема Автор Торрент Отв. Посл. сооб.
T Зарубежное кино [DVDRip, Low-Res HDRip, и т.д.] Ужас Амитивилля: Пробуждение / Amityville: The Awakening (Франк Халфун) [2017 г., ужасы, триллер, WEB-DLRip] Dub (звук с TS) makkol
22 | 3

0 | 815

5

05.10.2017 21:54

T Зарубежное кино [DVDRip, Low-Res HDRip, и т.д.] Ужас Амитивилля: Пробуждение / Amityville: The Awakening (Франк Халфун) [2017 г., ужасы, триллер, WEB-DLRip] MVO (@MUZOBOZ@) makkol
43 | 2

0 | 680

9

07.10.2017 21:24

T Зарубежное кино [DVDRip, Low-Res HDRip, и т.д.] Ужас Амитивилля: Пробуждение / Amityville: The Awakening (Франк Халфун) [2017 г., ужасы, триллер, WEB-DLRip] Dub (Line) makkol
6 | 3

0 | 419

4

20.10.2017 13:21

T Зарубежное кино [DVDRip, Low-Res HDRip, и т.д.] Ужас Амитивилля: Пробуждение / Amityville: The Awakening (Франк Халфун) [2017 г., ужасы, триллер, WEB-DLRip] Dub (iTunes) + Original makkol
3 | 3

0 | 669

11

10.11.2017 14:00

T Зарубежное кино [DVDRip, Low-Res HDRip, и т.д.] Ужас Амитивилля: Пробуждение / Amityville: The Awakening (Франк Халфун) [2017 г., ужасы, триллер, WEB-DLRip-AVC] Dub (iTunes) + Original makkol
1 | 1

0 | 650

2

10.11.2017 14:19

* Зарубежное кино [DVDRip, Low-Res HDRip, и т.д.] Ужас Амитивилля: Пробуждение / Amityville: The Awakening (Франк Халфун / Franck Khalfoun) [2017 г., ужасы, триллер, BDRip-AVC] Dub + Original (Eng) + Sub (Rus) 90ytr90
63 | 5

0 | 203

5

06.03.2018 10:14

* Зарубежное кино [DVDRip, Low-Res HDRip, и т.д.] Ужас Амитивилля: Пробуждение / Amityville: The Awakening (Франк Халфун / Franck Khalfoun) [2017 г., ужасы, триллер, BDRip-AVC] Dub + Sub (Rus) 90ytr90
7 | 3

0 | 164

0

06.03.2018 10:19

* Зарубежное кино [DVDRip, Low-Res HDRip, и т.д.] Ужас Амитивилля: Пробуждение / Amityville: The Awakening (Франк Халфун) [2017 г., ужасы, триллер, BDRip] Dub 90ytr90
30 | 3

0 | 199

3

06.03.2018 10:22

* Зарубежное кино [DVD / HDDVD / BD / Remux] Ужас Амитивилля: Пробуждение / Amityville: The Awakening (Франк Халфун) [2017 г., ужасы, триллер, BD 1080p] [RUS Transfer] Dub 90ytr90
2 | 3

0 | 134

2

06.03.2018 09:50

T Зарубежное кино [HDDVDRip / BDRip / WEB-DL / HDTV 1080/720р] Ужас Амитивилля: Пробуждение / Amityville: The Awakening (Франк Халфун) [2017 г., ужасы, триллер, WEB-DL 1080p] Dub (звук с TS) makkol
2 | 3

0 | 803

8

05.10.2017 22:01


Яндекс.Метрика powered by Sphinx


В Н И М А Н И Е
Сайт не распространяет и не хранит электронные версии произведений, а лишь бесплатно и без коммерческой выгоды (не требуя взамен платы,
SMS и т.д.) предоставляет доступ к создаваемому пользователями каталогу ссылок на торрент-файлы, которые содержат только списки хеш-сумм.
Убедительная просьба с жалобами обращаться напрямую к пользователю, разместившему торрент файл.

Вверх