Loading...
Error

(Alternative Rock) Пилот - Кукушка (2016) [FLAC (Tracks+.Cue), Lossless]

Статистика раздачи
Размер:  580 MB   |    Зарегистрирован:  2 месяца 23 дня   |    Скачан:  5 раз

Полного источника не было: 1 месяц 17 дней

Сидов:  0  |  0 KB/s  ]   Личеров:  0  |  0 KB/s  ]

* - сиды/пиры с внешних источников

   
 
Автор Сообщение

Бишеп Пол:Муж

03-Мар-2018 07:15

Пилот - Кукушка

Жанр: Alternative Rock
Год выпуска: 2016
Источник: CD
Производитель диска: Капкан Records
Аудиокодек: FLAC
Тип рипа: Tracks+.CUE
Битрейт аудио: lossless
Продолжительность: 01:14:56


Треклист:
01. Безвозврат
02. Светлого пути
03. Проводник и стюардесса
04. Оттепель
05. Путеводная
06. Встретились на счастье
07. Не мстят живущие под Богом
08. Память
09. Разбойничья
10. Голова-фонарь
11. Кукушка
12. Бесы
13. Никто не споёт нам
14. Одесская
15. Колыбельная

Код:

Exact Audio Copy V1.1 from 23. June 2015

Отчёт EAC об извлечении, выполненном 30. марта 2016, 22:23

Пилот / Кукушка

Дисковод: TSSTcorpCDDVDW SH-224DB   Adapter: 1  ID: 0

Режим чтения                 : Достоверность
Использование точного потока : Да
Отключение кэша аудио        : Да
Использование указателей C2  : Нет

Коррекция смещения при чтении                     : 6
Способность читать области Lead-in и Lead-out     : Нет
Заполнение пропущенных сэмплов тишиной            : Да
Удаление блоков с тишиной в начале и конце        : Нет
При вычислениях CRC использовались нулевые сэмплы : Да
Интерфейс                                         : Встроенный Win32-интерфейс для Win NT/2000
Обработка зазоров                                 : Добавлено к предыдущему треку

Выходной формат          : Пользовательский кодировщик
Выбранный битрейт        : 1024 kBit/s
Качество                 : Высокий
Добавление ID3-тега      : Нет
Утилита сжатия           : C:\Program Files (x86)\Exact Audio Copy\FLAC\FLAC.EXE
Дополнительные параметры : -6 -V -T "ARTIST=%artist%" -T "TITLE=%title%" -T "ALBUM=%albumtitle%" -T "DATE=%year%" -T "TRACKNUMBER=%tracknr%" -T "GENRE=%genre%" -T "COMMENT=%comment%" -T "BAND=%albuminterpret%" -T "ALBUMARTIST=%albuminterpret%" -T "COMPOSER=%composer%" %haslyrics%--tag-from-file=LYRICS="%lyricsfile%"%haslyrics% -T "DISCNUMBER=%cdnumber%" -T "TOTALDISCS=%totalcds%" -T "TOTALTRACKS=%numtracks%" %hascover%--picture="%coverfile%"%hascover% %source% -o %dest%

TOC извлечённого CD

     Трек |   Старт  | Длительность | Начальный сектор | Конечный сектор
    ---------------------------------------------------------------------
       1  |  0:00.00 |    7:00.12   |           0      |      31511     
       2  |  7:00.12 |    5:17.01   |       31512      |      55287     
       3  | 12:17.13 |    4:40.55   |       55288      |      76342     
       4  | 16:57.68 |    7:24.04   |       76343      |     109646     
       5  | 24:21.72 |    5:41.09   |      109647      |     135230     
       6  | 30:03.06 |    5:22.11   |      135231      |     159391     
       7  | 35:25.17 |    3:07.49   |      159392      |     173465     
       8  | 38:32.66 |    2:19.73   |      173466      |     183963     
       9  | 40:52.64 |    5:49.30   |      183964      |     210168     
      10  | 46:42.19 |    5:49.58   |      210169      |     236401     
      11  | 52:32.02 |    6:13.33   |      236402      |     264409     
      12  | 58:45.35 |    2:50.47   |      264410      |     277206     
      13  | 61:36.07 |    3:36.49   |      277207      |     293455     
      14  | 65:12.56 |    4:47.49   |      293456      |     315029     
      15  | 70:00.30 |    4:55.35   |      315030      |     337189     

Трек  1

     Имя файла D:\MUSIC\Пилот\Пилот - Кукушка (2016)\01. Безвозврат.wav

     Длина предзазора  0:00:02.00

     Пиковый уровень 97.9 %
     Скорость извлечения 2.1 X
     Качество трека 100.0 %
     CRC теста 36B4B462
     CRC копии 36B4B462
     Копирование... OK

Трек  2

     Имя файла D:\MUSIC\Пилот\Пилот - Кукушка (2016)\02. Светлого Пути.wav

     Пиковый уровень 97.9 %
     Скорость извлечения 2.4 X
     Качество трека 100.0 %
     CRC теста 1B07B7D8
     CRC копии 1B07B7D8
     Копирование... OK

Трек  3

     Имя файла D:\MUSIC\Пилот\Пилот - Кукушка (2016)\03. Проводник и Стюардесса.wav

     Пиковый уровень 97.9 %
     Скорость извлечения 2.5 X
     Качество трека 100.0 %
     CRC теста 73D61E36
     CRC копии 73D61E36
     Копирование... OK

Трек  4

     Имя файла D:\MUSIC\Пилот\Пилот - Кукушка (2016)\04. Оттепель.wav

     Пиковый уровень 97.9 %
     Скорость извлечения 2.8 X
     Качество трека 100.0 %
     CRC теста E6669344
     CRC копии E6669344
     Копирование... OK

Трек  5

     Имя файла D:\MUSIC\Пилот\Пилот - Кукушка (2016)\05. Путеводная.wav

     Пиковый уровень 97.9 %
     Скорость извлечения 3.0 X
     Качество трека 100.0 %
     CRC теста 12EE3BE3
     CRC копии 12EE3BE3
     Копирование... OK

Трек  6

     Имя файла D:\MUSIC\Пилот\Пилот - Кукушка (2016)\06. Встретились на Счастье.wav

     Пиковый уровень 97.9 %
     Скорость извлечения 3.1 X
     Качество трека 100.0 %
     CRC теста 9B429952
     CRC копии 9B429952
     Копирование... OK

Трек  7

     Имя файла D:\MUSIC\Пилот\Пилот - Кукушка (2016)\07. Не Мстят Живущие под Богом.wav

     Пиковый уровень 97.9 %
     Скорость извлечения 3.0 X
     Качество трека 100.0 %
     CRC теста 714B2291
     CRC копии 714B2291
     Копирование... OK

Трек  8

     Имя файла D:\MUSIC\Пилот\Пилот - Кукушка (2016)\08. Память.wav

     Пиковый уровень 97.9 %
     Скорость извлечения 2.9 X
     Качество трека 100.0 %
     CRC теста B096CD24
     CRC копии B096CD24
     Копирование... OK

Трек  9

     Имя файла D:\MUSIC\Пилот\Пилот - Кукушка (2016)\09. Разбойничья.wav

     Пиковый уровень 97.9 %
     Скорость извлечения 3.5 X
     Качество трека 100.0 %
     CRC теста A100FC31
     CRC копии A100FC31
     Копирование... OK

Трек 10

     Имя файла D:\MUSIC\Пилот\Пилот - Кукушка (2016)\10. Голова-Фонарь.wav

     Пиковый уровень 97.9 %
     Скорость извлечения 3.7 X
     Качество трека 100.0 %
     CRC теста 550F4486
     CRC копии 550F4486
     Копирование... OK

Трек 11

     Имя файла D:\MUSIC\Пилот\Пилот - Кукушка (2016)\11. Кукушка.wav

     Пиковый уровень 97.9 %
     Скорость извлечения 3.8 X
     Качество трека 100.0 %
     CRC теста AD4A4AFF
     CRC копии AD4A4AFF
     Копирование... OK

Трек 12

     Имя файла D:\MUSIC\Пилот\Пилот - Кукушка (2016)\12. Бесы.wav

     Пиковый уровень 97.9 %
     Скорость извлечения 3.0 X
     Качество трека 99.9 %
     CRC теста 87C0E870
     CRC копии 87C0E870
     Копирование... OK

Трек 13

     Имя файла D:\MUSIC\Пилот\Пилот - Кукушка (2016)\13. Никто не Споет Нам.wav

     Пиковый уровень 97.9 %
     Скорость извлечения 3.7 X
     Качество трека 100.0 %
     CRC теста 412127B0
     CRC копии 412127B0
     Копирование... OK

Трек 14

     Имя файла D:\MUSIC\Пилот\Пилот - Кукушка (2016)\14. Одесская.wav

     Пиковый уровень 97.9 %
     Скорость извлечения 4.0 X
     Качество трека 100.0 %
     CRC теста 0DF9D6AB
     CRC копии 0DF9D6AB
     Копирование... OK

Трек 15

     Имя файла D:\MUSIC\Пилот\Пилот - Кукушка (2016)\15. Колыбельная.wav

     Пиковый уровень 84.4 %
     Скорость извлечения 3.7 X
     Качество трека 99.9 %
     CRC теста 870909D0
     CRC копии 870909D0
     Копирование... OK

Ошибок не произошло

Конец отчёта

==== Контрольная сумма отчёта E2599C6E71CBFC9C405CD32AFFED434874FDE8F6B03A07D6E60EDEF0C6356E69 ====

Код:

REM GENRE Rock
REM DISCID C8118F0F
REM COMMENT "ExactAudioCopy v1.1"
PERFORMER "Пилот"
TITLE "Кукушка"
FILE "01. Безвозврат.wav" WAVE
  TRACK 01 AUDIO
    TITLE "Безвозврат"
    PERFORMER "Пилот"
    FLAGS DCP
    INDEX 01 00:00:00
FILE "02. Светлого Пути.wav" WAVE
  TRACK 02 AUDIO
    TITLE "Светлого Пути"
    PERFORMER "Пилот"
    FLAGS DCP
    INDEX 01 00:00:00
FILE "03. Проводник и Стюардесса.wav" WAVE
  TRACK 03 AUDIO
    TITLE "Проводник и Стюардесса"
    PERFORMER "Пилот"
    FLAGS DCP
    INDEX 01 00:00:00
FILE "04. Оттепель.wav" WAVE
  TRACK 04 AUDIO
    TITLE "Оттепель"
    PERFORMER "Пилот"
    FLAGS DCP
    INDEX 01 00:00:00
FILE "05. Путеводная.wav" WAVE
  TRACK 05 AUDIO
    TITLE "Путеводная"
    PERFORMER "Пилот"
    FLAGS DCP
    INDEX 01 00:00:00
FILE "06. Встретились на Счастье.wav" WAVE
  TRACK 06 AUDIO
    TITLE "Встретились на Счастье"
    PERFORMER "Пилот"
    FLAGS DCP
    INDEX 01 00:00:00
FILE "07. Не Мстят Живущие под Богом.wav" WAVE
  TRACK 07 AUDIO
    TITLE "Не Мстят Живущие под Богом"
    PERFORMER "Пилот"
    FLAGS DCP
    INDEX 01 00:00:00
FILE "08. Память.wav" WAVE
  TRACK 08 AUDIO
    TITLE "Память"
    PERFORMER "Пилот"
    FLAGS DCP
    INDEX 01 00:00:00
FILE "09. Разбойничья.wav" WAVE
  TRACK 09 AUDIO
    TITLE "Разбойничья"
    PERFORMER "Пилот"
    FLAGS DCP
    INDEX 01 00:00:00
FILE "10. Голова-Фонарь.wav" WAVE
  TRACK 10 AUDIO
    TITLE "Голова-Фонарь"
    PERFORMER "Пилот"
    FLAGS DCP
    INDEX 01 00:00:00
FILE "11. Кукушка.wav" WAVE
  TRACK 11 AUDIO
    TITLE "Кукушка"
    PERFORMER "Пилот"
    FLAGS DCP
    INDEX 01 00:00:00
FILE "12. Бесы.wav" WAVE
  TRACK 12 AUDIO
    TITLE "Бесы"
    PERFORMER "Пилот"
    FLAGS DCP
    INDEX 01 00:00:00
FILE "13. Никто не Споет Нам.wav" WAVE
  TRACK 13 AUDIO
    TITLE "Никто не Споет Нам"
    PERFORMER "Пилот"
    FLAGS DCP
    INDEX 01 00:00:00
FILE "14. Одесская.wav" WAVE
  TRACK 14 AUDIO
    TITLE "Одесская"
    PERFORMER "Пилот"
    FLAGS DCP
    INDEX 01 00:00:00
FILE "15. Колыбельная.wav" WAVE
  TRACK 15 AUDIO
    TITLE "Колыбельная"
    PERFORMER "Пилот"
    FLAGS DCP
    INDEX 01 00:00:00

Этот торрент недоступен для скачивания без регистрации, однако доступен по публичной magnet-ссылке (источники с публичных трекеров). Перед использованием ссылки прочтите, пожалуйста Пользовательское соглашение, а также как можно дольше оставайтесь на раздаче! Для того, чтобы скачать сам торрент-файл (который видит больше источников), а также для того, чтобы поблагодарить релизера, вам необходимо зарегистрироваться. Если регистрироваться лень - вы можете также попробовать скачать релиз по нашим партнерским ссылкам ниже. Кроме того, зарегистрированным пользователям не показывается всплывающая реклама при скачивании.

[underverse.me].t98667.torrent
Трекер: Зарегистрирован   [ 03.03.2018 07:15 ]  

Статус: проверено (by Бишеп at 03.03.2018 07:15)
Поблагодарили: 1 человек
Тип торрента: публичный - доступные источники с открытых трекеров: 
Размер: 580 MB (занимает 0,13 DVDR, для записи нужно 1 болванка DVDR/RW)
 
 
Похожие темы
Форум Тема Автор Торрент Отв. Посл. сооб.
Зарубежная Pop Музыка (Alternative Pop, Neo Soul, Indie) Amanda Jenssen - Sanger fran on (2015) [MP3, 320 kbps] 90ytr90
2 | 0

0 | 1064

3

23.03.2015 19:02

Зарубежная Pop Музыка (Alternative, Indie) Anna of the North - Lovers (2017) [MP3, 320 kbps CBR] Darkferse
3 | 0

0 | 673

4

13.09.2017 08:47

Зарубежный Hard, Progressive, Soft, Melodic, AOR, Folk, Classic Rock (Alternative Rock / Progressive Rock) Muse - The 2nd Law (2012) [MP3, 320 kbps] Jimmy
1 | 0

0 | 1287

13

27.09.2012 04:30

Зарубежный Black, Death, Heavy, Thrash, Power, Folk, Gothic Metal (Alternative Metal) This Tragic Day - This Tragic Day (2012) [MP3, 320 kbps] NiiggazCPT
1 | 0

0 | 1479

4

28.10.2012 07:21

Зарубежный Punk, Hardcore, Grunge, Alternative (Alternative) The Killers - Discography (2004-2013) [iTunes AAC M4A, 256 kbps VBR] Web garry
14 | 14

0 | 5814

3

20.06.2009 12:07

Зарубежный Punk, Hardcore, Grunge, Alternative (Alternative, Pop-Punk, Female Vocal) We Are the In Crowd - Weird Kids [Deluxe Edition] (2014) [MP3, 320 kbps] Jimmy
3 | 0

0 | 1111

3

23.04.2014 15:58

Зарубежный Punk, Hardcore, Grunge, Alternative (Alternative, Pop Punk, Emo) Fireworks - (Oh), Common Life (2014) [MP3, 320 kbps] Jimmy
0 | 0

0 | 890

4

23.04.2014 15:55

Зарубежный Punk, Hardcore, Grunge, Alternative (Alternative/Progressive Rock) 30 Seconds To Mars - This Is War (Deluxe Version) (2010) [MP3, 320 kbps] puzzikat
1 | 0

0 | 1615

6

14.02.2011 18:04

Зарубежный Punk, Hardcore, Grunge, Alternative (Alternative Rock, Hard Rock) Goodbye June - Magic Valley (2017) [MP3, 320 kbps CBR] Darkferse
7 | 0

0 | 668

2

22.05.2017 19:04

Зарубежный Punk, Hardcore, Grunge, Alternative (Alternative Rock) The Cranberries - Roses (2012) [MP3, 320 kbps] Jimmy
3 | 1

1 | 1679

10

18.02.2012 17:22


Яндекс.Метрика powered by Sphinx


В Н И М А Н И Е
Сайт не распространяет и не хранит электронные версии произведений, а лишь бесплатно и без коммерческой выгоды (не требуя взамен платы,
SMS и т.д.) предоставляет доступ к создаваемому пользователями каталогу ссылок на торрент-файлы, которые содержат только списки хеш-сумм.
Убедительная просьба с жалобами обращаться напрямую к пользователю, разместившему торрент файл.

Вверх