Loading...
Error

Проект «Флорида» / The Florida Project (Шон Бэйкер / Sean Baker) [2017 г., драма, BDRemux 1080p] MVO (GreenРай Studio) + Original (Eng) + Sub (Rus, Eng)

Статистика раздачи
Размер:  27,2 GB   |    Зарегистрирован:  2 месяца 18 дней   |    Скачан:  1 раз

Полного источника не было: 1 месяц 26 дней

Сидов:  0  |  0 KB/s  ]   Личеров:  0  |  0 KB/s  ]

* - сиды/пиры с внешних источников

   
 
Автор Сообщение

90ytr90 

03-Мар-2018 06:40

Проект «Флорида»/ The Florida Project
«Welcome to a magical kingdom»

Страна: США
Год выпуска: 2017
Жанр: драма
Продолжительность: 01:51:36
Озвучивание:
  • любительское (многоголосое закадровое) [GreenРай Studio]
  • оригинальная звуковая дорожка [английский]

Режиссёр: Шон Бэйкер / Sean Baker

В ролях: Бруклин Принс, Christopher Rivera, Эйден Малик, Josie Olivo, Valeria Cotto, Эдвард Паган, Bria Vinaite, Patti Wiley, Jasineia Ramos, Уиллем Дефо


Сюжет фильма:
Это лето Муни и ее друзья не забудут. Каждый день они, переполненные энергией и пренебрежением к взрослым, носятся по волшебному миру одноэтажной Америки на подступах к Диснейленду. Помешать им могут только родители или строгий надзиратель

  • Дата мировой премьеры: 22 мая 2017
  • Дата российской премьеры: 8 марта 2018, «A-One Films»
             
Качество видео: BDRemux 1080p
Формат: MKV
Видео: AVC, 1920x1080 (16:9), mode:Variable, 31.5 Mbps, 37 Mbps, 23.976 (24000/1001) fps, 0.633 bit/pixel
Аудио #1: AC3, 192 kbps, 2 ch, 48 kHz, MVO [GreenРай Studio]
Аудио #2: DTS-HD MA, 3219 kbps/1509 kbps, 6 ch, 48 kHz, Original [English]
Субтитры: Russian (full.Focs), English (full, SDH)
Навигация по главам: есть (16)

Сборка: Silverok
General
Unique ID : 64588681563905561346585100590116980459 (0x309753DCE377D9050A79AC6CBA9346EB)
Complete name : D:uTorrentProekt.Florida.2017.BDRemux.1080p.MediaClub.mkv
Format : Matroska
Format version : Version 4 / Version 2
File size : 27.2 GiB
Duration : 1 h 51 min
Overall bit rate mode : Variable
Overall bit rate : 34.9 Mb/s
Encoded date : UTC 2018-03-01 22:43:46
Writing application : mkvmerge v19.0.0 ('Brave Captain') 64-bit
Writing library : libebml v1.3.5 + libmatroska v1.4.8
Cover : Yes
Attachments : cover.jpg

Video
ID : 1
Format : AVC
Format/Info : Advanced Video Codec
Format profile : High@L4.1
Format settings : CABAC / 4 Ref Frames
Format settings, CABAC : Yes
Format settings, RefFrames : 4 frames
Codec ID : V_MPEG4/ISO/AVC
Duration : 1 h 51 min
Bit rate mode : Variable
Bit rate : 31.5 Mb/s
Maximum bit rate : 37.0 Mb/s
Width : 1 920 pixels
Height : 1 080 pixels
Display aspect ratio : 16:9
Frame rate mode : Constant
Frame rate : 23.976 (24000/1001) FPS
Color space : YUV
Chroma subsampling : 4:2:0
Bit depth : 8 bits
Scan type : Progressive
Bits/(Pixel*Frame) : 0.633
Stream size : 24.5 GiB (90%)
Title : BDRemux by Silverok
Default : Yes
Forced : No

Audio #1
ID : 2
Format : AC-3
Format/Info : Audio Coding 3
Codec ID : A_AC3
Duration : 1 h 51 min
Bit rate mode : Constant
Bit rate : 192 kb/s
Channel(s) : 2 channels
Channel positions : Front: L R
Sampling rate : 48.0 kHz
Frame rate : 31.250 FPS (1536 SPF)
Bit depth : 16 bits
Compression mode : Lossy
Stream size : 153 MiB (1%)
Title : Любительский многоголосый (GreenРай Studio)
Language : Russian
Service kind : Complete Main
Default : Yes
Forced : No

Audio #2
ID : 3
Format : DTS
Format/Info : Digital Theater Systems
Format profile : MA / Core
Codec ID : A_DTS
Duration : 1 h 51 min
Bit rate mode : Variable / Constant
Bit rate : 3 219 kb/s / 1 509 kb/s
Channel(s) : 6 channels
Channel positions : Front: L C R, Side: L R, LFE
Sampling rate : 48.0 kHz
Frame rate : 93.750 FPS (512 SPF)
Bit depth : 24 bits
Compression mode : Lossless / Lossy
Stream size : 2.51 GiB (9%)
Language : English
Default : No
Forced : No

Text #1
ID : 4
Format : UTF-8
Codec ID : S_TEXT/UTF8
Codec ID/Info : UTF-8 Plain Text
Duration : 1 h 46 min
Bit rate : 106 b/s
Count of elements : 1850
Stream size : 82.6 KiB (0%)
Title : Fill (Focs)
Language : Russian
Default : Yes
Forced : No

Text #2
ID : 5
Format : UTF-8
Codec ID : S_TEXT/UTF8
Codec ID/Info : UTF-8 Plain Text
Duration : 1 h 46 min
Bit rate : 65 b/s
Count of elements : 1511
Stream size : 50.9 KiB (0%)
Title : Full
Language : English
Default : No
Forced : No

Text #3
ID : 6
Format : UTF-8
Codec ID : S_TEXT/UTF8
Codec ID/Info : UTF-8 Plain Text
Duration : 1 h 50 min
Bit rate : 74 b/s
Count of elements : 1755
Stream size : 60.3 KiB (0%)
Title : SDH
Language : English
Default : No
Forced : No

Menu
00:00:00.000 : en:"Freshies at The Future!"
00:07:16.686 : en:"Toalla de Papel, por favor!"
00:13:02.657 : en:Jancey Joins The Gang
00:21:22.531 : en:"Magic" Mix-Up
00:25:16.390 : en:Ice Cream, You Scream
00:32:04.005 : en:The Halley Hustle
00:38:48.868 : en:A Watchful Eye
00:44:28.207 : en:"The Abandons"
00:51:27.543 : en:"Where's Scooty?"
00:56:41.648 : en:Bobby & Jack on ice
01:04:28.698 : en:Chasing Rainbows
01:11:19.108 : en:Jancey's Birthday Surprise
01:19:07.451 : en:Mother / Daughter Time
01:28:33.224 : en:Unwelcome Guests
01:36:10.932 : en:"Better Than A Cruise"
01:44:52.411 : en:Fleeing to Fantasy Land

Оскар, 2018 год
Номинации (1):
Лучшая мужская роль второго плана (Уиллем Дефо)

Золотой глобус, 2018 год
Номинации (1):
Лучшая мужская роль второго плана (Уиллем Дефо)

Британская академия, 2018 год
Номинации (1):
Лучшая мужская роль второго плана (Уиллем Дефо)

Премия Гильдии актеров, 2018 год
Номинации (1):
Лучшая мужская роль второго плана (Уиллем Дефо)


pic pic pic
Для увеличения картинки щелкните мышкой по превью



pic pic pic pic pic pic pic pic

Этот торрент недоступен для скачивания без регистрации, однако доступен по публичной magnet-ссылке (источники с публичных трекеров). Перед использованием ссылки прочтите, пожалуйста Пользовательское соглашение, а также как можно дольше оставайтесь на раздаче! Для того, чтобы скачать сам торрент-файл (который видит больше источников), а также для того, чтобы поблагодарить релизера, вам необходимо зарегистрироваться. Если регистрироваться лень - вы можете также попробовать скачать релиз по нашим партнерским ссылкам ниже. Кроме того, зарегистрированным пользователям не показывается всплывающая реклама при скачивании.

[underverse.me].t98662.torrent
Трекер: Зарегистрирован   [ 03.03.2018 06:40 ]  

Статус: проверено (by 90ytr90 at 25.03.2018 17:35)
Поблагодарили: пока никто не поблагодарил...
Тип торрента: публичный - доступные источники с открытых трекеров: 
Размер: 27,2 GB (занимает 6,21 DVDR, для записи нужно 7 болванок DVDR/RW)
 
 
Похожие темы
Форум Тема Автор Торрент Отв. Посл. сооб.
T Зарубежное кино [DVDRip, Low-Res HDRip, и т.д.] Проект «Флорида» / The Florida Project (Шон Бэйкер) [2017 г., драма, HDRip] MVO (@MUZOBOZ@) makkol
2 | 0

0 | 650

13

06.02.2018 20:49

T Зарубежное кино [DVDRip, Low-Res HDRip, и т.д.] Проект «Флорида»/ The Florida Project (Шон Бэйкер / Sean Baker) [2017 г., драма, HDRip] Dub (звук с TS) 90ytr90
1 | 0

0 | 589

2

01.03.2018 18:59

T Зарубежное кино [DVDRip, Low-Res HDRip, и т.д.] Проект «Флорида» / The Florida Project (Шон Бэйкер / Sean Baker) [2017 г., драма, HDRip] MVO (официальный звук) 90ytr90
15 | 0

0 | 446

3

25.03.2018 17:25

T Зарубежное кино [HDDVDRip / BDRip / WEB-DL / HDTV 1080/720р] Проект «Флорида» / The Florida Project (Шон Бэйкер) [2017 г., драма, BDRip 720p] MVO (@MUZOBOZ@) makkol
5 | 0

0 | 632

7

06.02.2018 20:59

T Зарубежное кино [HDDVDRip / BDRip / WEB-DL / HDTV 1080/720р] Проект «Флорида» / The Florida Project (Шон Бэйкер / Sean Baker) [2017 г., драма, BDRip 720p] Dub (звук с TS) 90ytr90
1 | 1

0 | 472

2

01.03.2018 19:00

T Зарубежное кино [HDDVDRip / BDRip / WEB-DL / HDTV 1080/720р] Проект «Флорида» / The Florida Project (Шон Бэйкер / Sean Baker) [2017 г., драма, BDRip 1080p] MVO (официальный звук) 90ytr90
7 | 0

0 | 351

6

25.03.2018 17:28

T Зарубежное кино [HDDVDRip / BDRip / WEB-DL / HDTV 1080/720р] Проект «Флорида» / The Florida Project (Шон Бэйкер / Sean Baker) [2017 г., драма, BDRip 720p] MVO (официальный звук) 90ytr90
7 | 0

0 | 403

4

25.03.2018 17:29

T Новинки кино [CAMRip, TS, DVDScr, WP, TC] Проект «Флорида» / The Florida Project (Шон Бэйкер) [2017 г., драма, DVDScr] MVO (@MUZOBOZ@) makkol
1 | 0

1 | 902

16

21.01.2018 16:24


Яндекс.Метрика powered by Sphinx


В Н И М А Н И Е
Сайт не распространяет и не хранит электронные версии произведений, а лишь бесплатно и без коммерческой выгоды (не требуя взамен платы,
SMS и т.д.) предоставляет доступ к создаваемому пользователями каталогу ссылок на торрент-файлы, которые содержат только списки хеш-сумм.
Убедительная просьба с жалобами обращаться напрямую к пользователю, разместившему торрент файл.

Вверх