Loading...
Error

Цепной пёс / Bullet Head (Пол Солет) [2017 г., триллер, драма, криминал, BD-Remux] Dub (iTunes) + MVO (Paradox&Omskbird records) + Original

Статистика раздачи
Размер:  22,52 GB   |    Зарегистрирован:  2 месяца 27 дней   |    Скачан:  3 раза

Полного источника не было: 8 часов

Сидов:  0  |  0 KB/s  ]   Личеров:  0  |  0 KB/s  ]

* - сиды/пиры с внешних источников

   
 
Автор Сообщение

makkol Пол:Муж

28-Фев-2018 21:32

Цепной пёс / Bullet Head


Год выпуска: 2017
Жанр: триллер, драма, криминал
Производство: Болгария , США [Millennium Media]
Режиссер: Пол Солет
В ролях: Эдриан Броуди, Рори Калкин, Антонио Бандерас, Джон Малкович, Александра Дину, Кристина Сеговиа, Ори Феффер, Оуэн Дэвис, Велизар Бинев, Кит Д. Эванс
Сюжет фильма:
Даже у самого верного дела возможны разные варианты завершения. Матерые преступники, пытаясь по наводке обчистить полицейский склад, оказываются в ловушке с разъяренным сторожевым псом по кличке ДеНиро. Счастливый финал кажется все более призрачным...

  • Мировая премьера: 7 декабря 2017
  • Российская премьера: 7 декабря 2017


Качество видео: BD-Remux

Продолжительность: 01:34:18
Формат: MKV
Видео: MPEG-4 AVC, 1920x1080 (16:9), 23.976 fps, 29.7 Mbps
Аудио #1: русский, дублированный (iTunes), AC3 5.1, 48 kHz, 384 kbps
Аудио #2: русский, профессиональный многоголосый закадровый ("Paradox" & Omskbird records), AC3 2.0, 48 kHz, 192 kbps
Аудио #3: английский, оригинал, DTS-HD MA 5.1, 48 kHz, 3840 kbps
Субтитры: английские вшитые отключаемые

Код:

Format                      : Matroska
Format version              : Version 4 / Version 2
File size                   : 22.5 GiB
Duration                    : 1 h 34 min
Overall bit rate mode       : Variable
Overall bit rate            : 34.2 Mb/s
Encoded date                : UTC 2018-02-28 19:27:40
Writing application         : mkvmerge v21.0.0 ('Tardigrades Will Inherit The Earth') 64-bit
Writing library             : libebml v1.3.5 + libmatroska v1.4.8

Video
ID                          : 1
Format                      : AVC
Format/Info                 : Advanced Video Codec
Format profile              : High@L4.1
Format settings             : CABAC / 4 Ref Frames
Format settings, CABAC      : Yes
Format settings, ReFrames   : 4 frames
Codec ID                    : V_MPEG4/ISO/AVC
Duration                    : 1 h 34 min
Bit rate mode               : Variable
Bit rate                    : 29.7 Mb/s
Maximum bit rate            : 35.0 Mb/s
Width                       : 1 920 pixels
Height                      : 1 080 pixels
Display aspect ratio        : 16:9
Frame rate mode             : Constant
Frame rate                  : 23.976 (24000/1001) FPS
Color space                 : YUV
Chroma subsampling          : 4:2:0
Bit depth                   : 8 bits
Scan type                   : Progressive
Bits/(Pixel*Frame)          : 0.598
Stream size                 : 19.6 GiB (87%)
Language                    : English
Default                     : Yes
Forced                      : No

Audio #1
ID                          : 2
Format                      : AC-3
Format/Info                 : Audio Coding 3
Codec ID                    : A_AC3
Duration                    : 1 h 34 min
Bit rate mode               : Constant
Bit rate                    : 384 kb/s
Channel(s)                  : 6 channels
Channel positions           : Front: L C R, Side: L R, LFE
Sampling rate               : 48.0 kHz
Frame rate                  : 31.250 FPS (1536 SPF)
Bit depth                   : 16 bits
Compression mode            : Lossy
Stream size                 : 259 MiB (1%)
Title                       : iTunes
Language                    : Russian
Service kind                : Complete Main
Default                     : Yes
Forced                      : No

Audio #2
ID                          : 3
Format                      : AC-3
Format/Info                 : Audio Coding 3
Codec ID                    : A_AC3
Duration                    : 1 h 34 min
Bit rate mode               : Constant
Bit rate                    : 192 kb/s
Channel(s)                  : 2 channels
Channel positions           : Front: L R
Sampling rate               : 48.0 kHz
Frame rate                  : 31.250 FPS (1536 SPF)
Bit depth                   : 16 bits
Compression mode            : Lossy
Stream size                 : 129 MiB (1%)
Title                       : MVO
Language                    : Russian
Service kind                : Complete Main
Default                     : No
Forced                      : No

Audio #3
ID                          : 4
Format                      : DTS
Format/Info                 : Digital Theater Systems
Format profile              : MA / Core
Codec ID                    : A_DTS
Duration                    : 1 h 34 min
Bit rate mode               : Variable / Constant
Bit rate                    : 3 840 kb/s / 1 509 kb/s
Channel(s)                  : 6 channels
Channel positions           : Front: L C R, Side: L R, LFE
Sampling rate               : 48.0 kHz
Frame rate                  : 93.750 FPS (512 SPF)
Bit depth                   : 24 bits
Compression mode            : Lossless / Lossy
Stream size                 : 2.55 GiB (11%)
Title                       : Original
Language                    : English
Default                     : No
Forced                      : No

Text
ID                          : 5
Format                      : UTF-8
Codec ID                    : S_TEXT/UTF8
Codec ID/Info               : UTF-8 Plain Text
Duration                    : 1 h 27 min
Bit rate                    : 43 b/s
Count of elements           : 923
Stream size                 : 27.7 KiB (0%)
Title                       : Full
Language                    : English
Default                     : No
Forced                      : No

Menu
00:00:00.000                : en:00:00:00.000
00:03:33.213                : en:00:03:33.213
00:08:37.684                : en:00:08:37.684
00:13:22.927                : en:00:13:22.927
00:22:26.136                : en:00:22:26.136
00:29:18.548                : en:00:29:18.548
00:35:30.670                : en:00:35:30.670
00:41:42.041                : en:00:41:42.041
00:49:39.727                : en:00:49:39.727
00:52:54.463                : en:00:52:54.463
00:57:24.566                : en:00:57:24.566
01:01:10.333                : en:01:01:10.333
01:08:26.769                : en:01:08:26.769
01:14:11.280                : en:01:14:11.280
01:22:48.797                : en:01:22:48.797
01:27:07.889                : en:01:27:07.889
Релиз:

picpicpicpicpic
Для увеличения картинки щелкните мышкой по превью

Этот торрент недоступен для скачивания без регистрации, однако доступен по публичной magnet-ссылке (источники с публичных трекеров). Перед использованием ссылки прочтите, пожалуйста Пользовательское соглашение, а также как можно дольше оставайтесь на раздаче! Для того, чтобы скачать сам торрент-файл (который видит больше источников), а также для того, чтобы поблагодарить релизера, вам необходимо зарегистрироваться. Если регистрироваться лень - вы можете также попробовать скачать релиз по нашим партнерским ссылкам ниже. Кроме того, зарегистрированным пользователям не показывается всплывающая реклама при скачивании.

[underverse.me].t98369.torrent
Трекер: Зарегистрирован   [ 28.02.2018 21:32 ]  

Статус: поглощено (by 90ytr90 at 18.03.2018 09:22)
Поблагодарили: пока никто не поблагодарил...
Тип торрента: публичный - доступные источники с открытых трекеров: 
Размер: 22,52 GB (занимает 5,14 DVDR, для записи нужно 6 болванок DVDR/RW)
 
 
Похожие темы
Форум Тема Автор Торрент Отв. Посл. сооб.
T Зарубежное кино [DVDRip, Low-Res HDRip, и т.д.] Цепной пёс / Bullet Head (Пол Солет) [2017 г., триллер, драма, криминал, WEB-DLRip] MVO (@MUZOBOZ@) makkol
22 | 0

0 | 927

26

09.12.2017 13:30

Зарубежное кино [DVDRip, Low-Res HDRip, и т.д.] Цепной пёс / Bullet Head (Пол Солет / Paul Solet) [2017 г., триллер, драма, криминал, BDRip] MVO (Paradox & Omskbird records, без цензуры) + Original (Eng) 90ytr90
5 | 0

0 | 610

10

19.02.2018 04:07

Зарубежное кино [DVDRip, Low-Res HDRip, и т.д.] Цепной пёс / Bullet Head (Пол Солет / Paul Solet) [2017 г., триллер, драма, криминал, BDRip] Dub 90ytr90
160 | 3

0 | 461

11

18.03.2018 09:18

Зарубежные мультфильмы Цепной пёс / Bullet Head (Пол Солет / Paul Solet) [2017 г., триллер, драма, криминал, BDRip] Dub 90ytr90
19 | 0

0 | 305

4

18.03.2018 09:12

Зарубежное кино [DVD / HDDVD / BD / Remux] Цепной пёс / Bullet Head (Пол Солет / Paul Solet) [2017 г., триллер, драма, криминал, BDRemux 1080p] [US Transfer] Dub + MVO (Paradox & Omskbird records, без цензуры) + Original (Eng) + Sub (Eng) 90ytr90
3 | 0

0 | 301

0

17.03.2018 14:15

Зарубежное кино [DVD / HDDVD / BD / Remux] Цепной пёс / Bullet Head (Пол Солет / Paul Solet) [2017 г., триллер, драма, криминал, BDRemux 1080p] [RUS Transfer] Dub 90ytr90
17 | 3

0 | 415

2

18.03.2018 09:31

Зарубежное кино [HDDVDRip / BDRip / WEB-DL / HDTV 1080/720р] Цепной пёс / Bullet Head (Пол Солет / Paul Solet) [2017 г., триллер, драма, криминал, BDRip 1080p] Dub + MVO (Paradox & Omskbird records, без цензуры) + Original (Eng) + Sub (Eng) 90ytr90
42 | 0

0 | 354

3

17.03.2018 14:12

Зарубежное кино [HDDVDRip / BDRip / WEB-DL / HDTV 1080/720р] Цепной пёс / Bullet Head (Пол Солет / Paul Solet) [2017 г., триллер, драма, криминал, BDRip 720p] Dub + MVO (Paradox & Omskbird records, без цензуры) + Original (Eng) + Sub (Eng) 90ytr90
15 | 1

0 | 348

4

17.03.2018 14:13

T Зарубежное кино [HDDVDRip / BDRip / WEB-DL / HDTV 1080/720р] Цепной пёс / Bullet Head (Пол Солет) [2017 г., триллер, драма, криминал, WEB-DL 720p] MVO (@MUZOBOZ@) makkol
2 | 0

0 | 751

7

09.12.2017 13:36

T Зарубежное кино [HDDVDRip / BDRip / WEB-DL / HDTV 1080/720р] Цепной пёс / Bullet Head (Пол Солет) [2017 г., триллер, драма, криминал, WEB-DL 1080p] MVO (@MUZOBOZ@) makkol
3 | 0

0 | 901

16

09.12.2017 13:43

18-Мар-2018 09:22

Топик был перенесен из форума Зарубежное кино [DVD / HDDVD / BD / Remux] в форум Для поглощенных раздач

Причина переноса: http://underverse.me/viewtopic.php?t=98154
90ytr90
 

Яндекс.Метрика powered by Sphinx


В Н И М А Н И Е
Сайт не распространяет и не хранит электронные версии произведений, а лишь бесплатно и без коммерческой выгоды (не требуя взамен платы,
SMS и т.д.) предоставляет доступ к создаваемому пользователями каталогу ссылок на торрент-файлы, которые содержат только списки хеш-сумм.
Убедительная просьба с жалобами обращаться напрямую к пользователю, разместившему торрент файл.

Вверх