Loading...
Error

Смерть Сталина / The Death of Stalin (Армандо Ианнуччи / Armando Iannucci) [2017 г., комедия, BDRemux 1080p] MVO (@MUZOBOZ@) + Original (Eng) + Sub (Rus)

Статистика раздачи
Размер:  23,79 GB   |    Зарегистрирован:  2 месяца 25 дней   |    Скачан:  4 раза

Полного источника не было: 23 дня

Сидов:  0  |  0 KB/s  ]   Личеров:  0  |  0 KB/s  ]

* - сиды/пиры с внешних источников

   
 
Автор Сообщение

90ytr90 

25-Фев-2018 11:03

Смерть Сталина / The Death of Stalin
«Тоталитарная комедия в вольной трактовке»

Страна: Франция, Великобритания, Бельгия
Год выпуска: 2017
Жанр: комедия
Продолжительность: 01:46:34
Озвучивание:
  • любительское (многоголосое закадровое) [@MUZOBOZ@]
  • оригинальная звуковая дорожка [английский]

Режиссёр: Армандо Ианнуччи / Armando Iannucci

В ролях: Ольга Куриленко, Том Брук, Пэдди Консидайн, Джастин Эдвардс, Адриан Маклафлин, Саймон Расселл Бил, Джеффри Тэмбор, Стив Бушеми, Майкл Пэйлин, Пол Рэди


Сюжет фильма:
СССР, 1953 год. Страна трепещет от страха перед одним человеком. 5 марта Генсек умер. Когда уходит великий вождь, наступает время борьбы за власть. Гонка началась!

  • Дата мировой премьеры: 8 сентября 2017
             
Качество видео: BDRemux 1080p
Формат: MKV
Видео: AVC, 1920x1080 (16:9), 30 Mbps, 24 fps, 0.603 bit/pixel
Аудио #1: AC3, 192 kbps, 2 ch, 48 kHz, MVO [@MUZOBOZ@]
Аудио #2: DTS-HD MA, 1769 kbps/1509 kbps, 6 ch, 48 kHz, Original [English]
Субтитры: Russian (full), English (full)
Навигация по главам: есть (16)

Сборка: Silverok

General
Unique ID : 224190535353387705609790721939994596870 (0xA8A986CA92DE72F7D71DF7E394005606)
Complete name : D:uTorrentSmert.Stalina.2017.BDRemux.1080p.MediaClub.mkv
Format : Matroska
Format version : Version 4 / Version 2
File size : 23.8 GiB
Duration : 1 h 46 min
Overall bit rate mode : Variable
Overall bit rate : 32.0 Mb/s
Encoded date : UTC 2018-02-24 16:38:15
Writing application : mkvmerge v19.0.0 ('Brave Captain') 64-bit
Writing library : libebml v1.3.5 + libmatroska v1.4.8
Cover : Yes
Attachments : cover.jpg

Video
ID : 1
Format : AVC
Format/Info : Advanced Video Codec
Format profile : High@L4.1
Format settings : CABAC / 4 Ref Frames
Format settings, CABAC : Yes
Format settings, RefFrames : 4 frames
Format settings, GOP : M=3, N=24
Codec ID : V_MPEG4/ISO/AVC
Duration : 1 h 46 min
Bit rate mode : Variable
Bit rate : 30.0 Mb/s
Maximum bit rate : 35.0 Mb/s
Width : 1 920 pixels
Height : 1 080 pixels
Display aspect ratio : 16:9
Frame rate mode : Constant
Frame rate : 24.000 FPS
Standard : NTSC
Color space : YUV
Chroma subsampling : 4:2:0
Bit depth : 8 bits
Scan type : Progressive
Bits/(Pixel*Frame) : 0.603
Stream size : 22.3 GiB (94%)
Title : BDRemux by Silverok
Default : Yes
Forced : No
Color range : Limited
Color primaries : BT.709
Transfer characteristics : BT.709
Matrix coefficients : BT.709

Audio #1
ID : 2
Format : AC-3
Format/Info : Audio Coding 3
Codec ID : A_AC3
Duration : 1 h 46 min
Bit rate mode : Constant
Bit rate : 192 kb/s
Channel(s) : 2 channels
Channel positions : Front: L R
Sampling rate : 48.0 kHz
Frame rate : 31.250 FPS (1536 SPF)
Bit depth : 16 bits
Compression mode : Lossy
Stream size : 146 MiB (1%)
Title : Любительский многоголосый, закадровый (@MUZOBOZ@)
Language : Russian
Service kind : Complete Main
Default : Yes
Forced : No

Audio #2
ID : 3
Format : DTS
Format/Info : Digital Theater Systems
Format profile : MA / Core
Codec ID : A_DTS
Duration : 1 h 46 min
Bit rate mode : Variable / Constant
Bit rate : 1 769 kb/s / 1 509 kb/s
Channel(s) : 6 channels
Channel positions : Front: L C R, Side: L R, LFE
Sampling rate : 48.0 kHz
Frame rate : 93.750 FPS (512 SPF)
Bit depth : 16 bits
Compression mode : Lossless / Lossy
Stream size : 1.32 GiB (6%)
Language : English
Default : No
Forced : No

Text #1
ID : 4
Format : UTF-8
Codec ID : S_TEXT/UTF8
Codec ID/Info : UTF-8 Plain Text
Duration : 1 h 38 min
Bit rate : 142 b/s
Count of elements : 1713
Stream size : 103 KiB (0%)
Title : Full
Language : Russian
Default : Yes
Forced : No

Text #2
ID : 5
Format : UTF-8
Codec ID : S_TEXT/UTF8
Codec ID/Info : UTF-8 Plain Text
Duration : 1 h 39 min
Bit rate : 88 b/s
Count of elements : 1835
Stream size : 64.1 KiB (0%)
Title : Full
Language : English
Default : No
Forced : No

Menu
00:00:00.000 : en:Chapter 1
00:06:38.875 : en:Chapter 2
00:13:02.583 : en:Chapter 3
00:19:53.125 : en:Chapter 4
00:29:06.125 : en:Chapter 5
00:33:58.250 : en:Chapter 6
00:40:22.417 : en:Chapter 7
00:45:28.000 : en:Chapter 8
00:50:35.000 : en:Chapter 9
00:58:40.750 : en:Chapter 10
01:03:23.667 : en:Chapter 11
01:12:31.750 : en:Chapter 12
01:17:42.917 : en:Chapter 13
01:24:49.000 : en:Chapter 14
01:33:33.708 : en:Chapter 15
01:39:25.583 : en:Chapter 16


pic pic pic
Для увеличения картинки щелкните мышкой по превью



pic pic pic pic pic pic

Этот торрент недоступен для скачивания без регистрации, однако доступен по публичной magnet-ссылке (источники с публичных трекеров). Перед использованием ссылки прочтите, пожалуйста Пользовательское соглашение, а также как можно дольше оставайтесь на раздаче! Для того, чтобы скачать сам торрент-файл (который видит больше источников), а также для того, чтобы поблагодарить релизера, вам необходимо зарегистрироваться. Если регистрироваться лень - вы можете также попробовать скачать релиз по нашим партнерским ссылкам ниже. Кроме того, зарегистрированным пользователям не показывается всплывающая реклама при скачивании.

[underverse.me].t98018.torrent
Трекер: Зарегистрирован   [ 25.02.2018 11:03 ]  

Статус: © запрещена на территории РФ (by 90ytr90 at 25.02.2018 11:03)
Поблагодарили: 1 человек
Тип торрента: публичный - доступные источники с открытых трекеров: 
Размер: 23,79 GB (занимает 5,44 DVDR, для записи нужно 6 болванок DVDR/RW)
 
 
Похожие темы
Форум Тема Автор Торрент Отв. Посл. сооб.
© Зарубежное кино [DVDRip, Low-Res HDRip, и т.д.] Смерть Сталина / The Death of Stalin (Армандо Ианнуччи) [2017 г., комедия, драма, история, WEB-DLRip] Dub (звук с TS) makkol
27 | 0
1,51 GB

0 | 344

15

20.02.2018 12:44

© Зарубежное кино [DVDRip, Low-Res HDRip, и т.д.] Смерть Сталина / The Death of Stalin (Армандо Ианнуччи / Armando Iannucci) [2017 г., комедия, HDRip] Dub (чистый звук) 90ytr90
113 | 0
1,46 GB

0 | 802

38

24.02.2018 05:58

© Зарубежное кино [DVDRip, Low-Res HDRip, и т.д.] Смерть Сталина / The Death of Stalin (Армандо Ианнуччи / Armando Iannucci) [2017 г., комедия, BDRip] MVO (@MUZOBOZ@) + Original (Eng) + Sub (Rus) 90ytr90
33 | 0
1,46 GB

3 | 420

18

25.02.2018 11:08

© Зарубежное кино [DVDRip, Low-Res HDRip, и т.д.] Смерть Сталина / The Death of Stalin (Армандо Ианнуччи / Armando Iannucci) [2017 г., комедия, BDRip] MVO (HDrezka Studio) + Original (Eng) + Sub (Rus) 90ytr90
211 | 3
1,46 GB

0 | 458

23

25.02.2018 13:07

© Зарубежное кино [HDDVDRip / BDRip / WEB-DL / HDTV 1080/720р] Смерть Сталина / The Death of Stalin (Армандо Ианнуччи) [2017 г., комедия, драма, история, WEB-DL 720p] Dub (звук с TS) makkol
3 | 0
3,72 GB

0 | 421

13

20.02.2018 12:53

© Зарубежное кино [HDDVDRip / BDRip / WEB-DL / HDTV 1080/720р] Смерть Сталина / The Death of Stalin (Армандо Ианнуччи / Armando Iannucci) [2017 г., комедия, BDRip 720p] Dub (чистый звук) 90ytr90
15 | 0
4,98 GB

0 | 448

27

24.02.2018 05:59

© Зарубежное кино [HDDVDRip / BDRip / WEB-DL / HDTV 1080/720р] Смерть Сталина / The Death of Stalin (Армандо Ианнуччи / Armando Iannucci) [2017 г., комедия, BDRip 720p] MVO (HDrezka Studio) + Original (Eng) + Sub (Rus, Eng) 90ytr90
147 | 5
4,51 GB

0 | 494

8

25.02.2018 10:56

© Зарубежное кино [HDDVDRip / BDRip / WEB-DL / HDTV 1080/720р] Смерть Сталина / The Death of Stalin (Армандо Ианнуччи / Armando Iannucci) [2017 г., комедия, BDRip 1080p] MVO (HDrezka Studio) + DVO (КОЛОБОК) + MVO (@MUZOBOZ@) + Original (Eng) + Sub (Rus, Eng) 90ytr90
168 | 2
8,37 GB

0 | 638

22

25.02.2018 18:33

© Новинки кино [CAMRip, TS, DVDScr, WP, TC] Смерть Сталина / The Death of Stalin (Армандо Ианнуччи) [2017 г., комедия, драма, история, TS] MVO (Колобок) makkol
13 | 0
1,37 GB

0 | 1175

44

28.01.2018 22:03

© Новинки кино [CAMRip, TS, DVDScr, WP, TC] Смерть Сталина / The Death of Stalin (Армандо Ианнуччи) [2017 г., комедия, драма, история, TS 720p] MVO (Колобок) makkol
23 | 0
2,35 GB

6 | 2247

99

09.02.2018 10:04


Яндекс.Метрика powered by Sphinx


В Н И М А Н И Е
Сайт не распространяет и не хранит электронные версии произведений, а лишь бесплатно и без коммерческой выгоды (не требуя взамен платы,
SMS и т.д.) предоставляет доступ к создаваемому пользователями каталогу ссылок на торрент-файлы, которые содержат только списки хеш-сумм.
Убедительная просьба с жалобами обращаться напрямую к пользователю, разместившему торрент файл.

Вверх