Loading...
Error

(Авторская песня) Владимир Высоцкий - Автопортрет (1999) [FLAC (Image+.Cue), Lossless]

Статистика раздачи
Размер:  289 MB   |    Зарегистрирован:  3 месяца 5 дней   |    Скачан:  3 раза
Сидов:  1  |  0 KB/s  ]   Личеров:  0  |  0 KB/s  ]

* - сиды/пиры с внешних источников

   
 
Автор Сообщение

Бишеп Пол:Муж

22-Фев-2018 05:12

Владимир Высоцкий - Автопортрет

Жанр: Авторская песня
Год выпуска: 1999
Источник: CD
Производитель диска: SoLyd Records - SLR 0206
Аудиокодек: FLAC
Тип рипа: Image+.CUE
Битрейт аудио: lossless
Продолжительность: 00:55:39


Треклист:
01. Песня о погибшем летчике
02. Песня о воздушном бое
03. В сон мне - желтые огни
04. Посещение Музы, или Песенка плагиатора
05. Песенка о переселении душ
06. Рассказ о песенной поэме про лошадей
07. Песня иноходца
08. Охота на кабанов
09. Рассказ о песне `Тот, который не стрелял`
10. Тот, который не стрелял
11. Дорожная история
12. Песня микрофона
13. На дистанции - четверка первачей, или Кто за чем бежит
14. Про прыгуна в длину
15. Вот это да!..
16. Разговор в трамвае (фрагмент)
17. Диалог у телевизора
18. Инструкция перед поездкой

Код:

Exact Audio Copy V0.99 prebeta 4 from 23. January 2008

Отчёт EAC об извлечении, выполненном 22. апреля 2012, 23:24

Владимир Высоцкий / Автопортрет

Дисковод: PLEXTOR DVDR   PX-820A   Adapter: 0  ID: 0

Режим чтения                 : Достоверность
Использование точного потока : Да
Отключение кэша аудио        : Да
Использование указателей C2  : Нет

Коррекция смещения при чтении                     : 48
Способность читать области Lead-in и Lead-out     : Нет
Заполнение пропущенных сэмплов тишиной            : Да
Удаление блоков с тишиной в начале и конце        : Нет
При вычислениях CRC использовались нулевые сэмплы : Да
Интерфейс                                         : Установленный внешний ASPI-интерфейс

Выходной формат : Внутренние WAV-операции
Формат сэмплов  : 44.100 Гц; 16 бит; стерео

TOC извлечённого CD

     Трек |   Старт  | Длительность | Начальный сектор | Конечный сектор
    ---------------------------------------------------------------------
       1  |  0:00.00 |    5:03.31   |           0      |      22755     
       2  |  5:03.31 |    3:07.42   |       22756      |      36822     
       3  |  8:10.73 |    5:03.16   |       36823      |      59563     
       4  | 13:14.14 |    2:32.17   |       59564      |      70980     
       5  | 15:46.31 |    2:45.27   |       70981      |      83382     
       6  | 18:31.58 |    1:31.58   |       83383      |      90265     
       7  | 20:03.41 |    2:29.00   |       90266      |     101440     
       8  | 22:32.41 |    2:41.68   |      101441      |     113583     
       9  | 25:14.34 |    1:45.36   |      113584      |     121494     
      10  | 26:59.70 |    2:42.60   |      121495      |     133704     
      11  | 29:42.55 |    2:55.55   |      133705      |     146884     
      12  | 32:38.35 |    4:24.09   |      146885      |     166693     
      13  | 37:02.44 |    4:51.15   |      166694      |     188533     
      14  | 41:53.59 |    2:02.28   |      188534      |     197711     
      15  | 43:56.12 |    2:35.00   |      197712      |     209336     
      16  | 46:31.12 |    0:33.06   |      209337      |     211817     
      17  | 47:04.18 |    3:39.00   |      211818      |     228242     
      18  | 50:43.18 |    4:54.65   |      228243      |     250357     

Характеристики диапазона извлечения и сообщения об ошибках

Выбранный диапазон

     Имя файла C:\Extract_temp\Владимир Высоцкий - Автопортрет\Владимир Высоцкий - Автопортрет.wav

     Пиковый уровень 100.0 %
     Качество диапазона 100.0 %
     CRC теста A3DC481C
     CRC копии A3DC481C
     Копирование... OK

Ошибок не произошло

 
AccurateRip: сводка
 
Трек  1  точное извлечение (доверие 2)  [DF6D7DE9]
Трек  2  точное извлечение (доверие 2)  [AEA5BD70]
Трек  3  точное извлечение (доверие 2)  [BB1C21B3]
Трек  4  точное извлечение (доверие 2)  [EB65A169]
Трек  5  точное извлечение (доверие 2)  [83E1690C]
Трек  6  точное извлечение (доверие 2)  [AB6DF9D5]
Трек  7  точное извлечение (доверие 2)  [548349BC]
Трек  8  точное извлечение (доверие 2)  [C57A3109]
Трек  9  точное извлечение (доверие 2)  [DFA17094]
Трек 10  точное извлечение (доверие 2)  [EA1B9E71]
Трек 11  точное извлечение (доверие 2)  [6ADE96D5]
Трек 12  точное извлечение (доверие 2)  [1F93272B]
Трек 13  точное извлечение (доверие 2)  [40E33B7F]
Трек 14  точное извлечение (доверие 2)  [53336D97]
Трек 15  точное извлечение (доверие 2)  [D23FE1EB]
Трек 16  точное извлечение (доверие 2)  [B62786A2]
Трек 17  точное извлечение (доверие 2)  [C8AF6307]
Трек 18  точное извлечение (доверие 2)  [4CCB17A3]
 
Все треки извлечены точно

Конец отчёта

Код:

REM GENRE Chanson
REM DATE 1999
REM DISCID F70D0A12
REM COMMENT "ExactAudioCopy v0.99pb4"
PERFORMER "Владимир Высоцкий"
TITLE "Автопортрет"
FILE "Владимир Высоцкий - Автопортрет.wav" WAVE
  TRACK 01 AUDIO
    TITLE "Песня о погибшем лётчике"
    PERFORMER "Владимир Высоцкий"
    INDEX 01 00:00:00
  TRACK 02 AUDIO
    TITLE "Песня о воздушном бое"
    PERFORMER "Владимир Высоцкий"
    INDEX 01 05:03:31
  TRACK 03 AUDIO
    TITLE "В сон мне - жёлтые огни"
    PERFORMER "Владимир Высоцкий"
    INDEX 01 08:10:73
  TRACK 04 AUDIO
    TITLE "Посещение Музы, или Песенка плагиатора"
    PERFORMER "Владимир Высоцкий"
    INDEX 01 13:14:14
  TRACK 05 AUDIO
    TITLE "Песенка о переселении душ"
    PERFORMER "Владимир Высоцкий"
    INDEX 01 15:46:31
  TRACK 06 AUDIO
    TITLE "рассказ о песенной поэме про лошадей"
    PERFORMER "Владимир Высоцкий"
    INDEX 01 18:31:58
  TRACK 07 AUDIO
    TITLE "Песня иноходца"
    PERFORMER "Владимир Высоцкий"
    INDEX 01 20:03:41
  TRACK 08 AUDIO
    TITLE "Охота на кабанов"
    PERFORMER "Владимир Высоцкий"
    INDEX 01 22:32:41
  TRACK 09 AUDIO
    TITLE "рассказ о песне 'Тот, который не стрелял'"
    PERFORMER "Владимир Высоцкий"
    INDEX 01 25:14:34
  TRACK 10 AUDIO
    TITLE "Тот, который не стрелял"
    PERFORMER "Владимир Высоцкий"
    INDEX 01 26:59:70
  TRACK 11 AUDIO
    TITLE "Дорожная история"
    PERFORMER "Владимир Высоцкий"
    INDEX 01 29:42:55
  TRACK 12 AUDIO
    TITLE "Песня микрофона"
    PERFORMER "Владимир Высоцкий"
    INDEX 01 32:38:35
  TRACK 13 AUDIO
    TITLE "На дистанции - четвёрка первачей, или Кто за чем бежит"
    PERFORMER "Владимир Высоцкий"
    INDEX 01 37:02:44
  TRACK 14 AUDIO
    TITLE "Про прыгуна в длину"
    PERFORMER "Владимир Высоцкий"
    INDEX 01 41:53:59
  TRACK 15 AUDIO
    TITLE "Вот это да!.."
    PERFORMER "Владимир Высоцкий"
    INDEX 01 43:56:12
  TRACK 16 AUDIO
    TITLE "Разговор в трамвае (фрагмент)"
    PERFORMER "Владимир Высоцкий"
    INDEX 01 46:31:12
  TRACK 17 AUDIO
    TITLE "Диалог у телевизора"
    PERFORMER "Владимир Высоцкий"
    INDEX 01 47:04:18
  TRACK 18 AUDIO
    TITLE "Инструкция перед поездкой"
    PERFORMER "Владимир Высоцкий"
    INDEX 01 50:43:18

Этот торрент недоступен для скачивания без регистрации, однако доступен по публичной magnet-ссылке (источники с публичных трекеров). Перед использованием ссылки прочтите, пожалуйста Пользовательское соглашение, а также как можно дольше оставайтесь на раздаче! Для того, чтобы скачать сам торрент-файл (который видит больше источников), а также для того, чтобы поблагодарить релизера, вам необходимо зарегистрироваться. Если регистрироваться лень - вы можете также попробовать скачать релиз по нашим партнерским ссылкам ниже. Кроме того, зарегистрированным пользователям не показывается всплывающая реклама при скачивании.

[underverse.me].t97550.torrent
Трекер: Зарегистрирован   [ 22.02.2018 05:12 ]  

Статус: проверено (by Бишеп at 22.02.2018 05:13)
Поблагодарили: 3 человека
Тип торрента: публичный - доступные источники с открытых трекеров: 
Размер: 289 MB (занимает 0,06 DVDR, для записи нужно 1 болванка DVDR/RW)
 
 
Похожие темы
Форум Тема Автор Торрент Отв. Посл. сооб.
Авторские песни, Барды (Авторская песня) Владимир Высоцкий - Полная коллекция (2009) [MP3, 320 kbps] Добрый жмот
6 | 2

11 | 5763

78

31.07.2013 07:22

Авторские песни, Барды (Авторская песня) Тимур Шаов - О чем молчал Герасим... (2010) [MP3, 320 kbps] KonKoSerg
9 | 0

4 | 2522

25

24.08.2013 06:03

Авторские песни, Барды (Авторская песня) Татьяна и Сергей Никитины - Городок, что я выдумал (2011) [MP3, 320 kbps] KonKoSerg
2 | 1

1 | 2786

39

11.05.2013 10:18

Авторские песни, Барды (Авторская песня) Владимир Высоцкий - Дискография [22 СD] (2001-2007) [MP3, 320 CBR] vovanig
2 | 0

2 | 3342

56

07.08.2014 19:18

Авторские песни, Барды (Авторская песня) Семён Слепаков - Альбом 1 (2012) [MP3, 320 kbps CBR] Бишеп
3 | 0

1 | 1972

53

11.05.2013 07:53

Авторские песни, Барды (Авторская песня, Фолк) Никола Емелин (Емеля) - Дискография (6 альбомов) (1989 - 2011) [MP3, 64-320 kbps] gregsib
11 | 0

1 | 1919

22

05.07.2013 18:48

Авторские песни, Барды (Авторская песня) Вячеслав Мясников (Уральские пельмени) - Сборник песен (2014) [MP3, 128-320 kbps CBR] terra07
1 | 0

1 | 2595

42

09.12.2015 14:37

Авторские песни, Барды (Авторская песня) Владимир Высоцкий - Спасибо, что живой. Песни из кинофильма... - и не только (2012) [MP3, 320 kbps CBR] valera87
1 | 0

0 | 1183

7

14.03.2015 16:31

Авторские песни, Барды (Lossless) (Авторская песня) Владимир Высоцкий - Grand Collection. Часть 1 / Часть 2 (2004) [FLAC (Tracks+.CUE), lossless] garry
0 | 0

1 | 1792

12

21.04.2012 07:06

# Авторские песни, Барды (Lossless) (Авторская песня) Евгений Баранник - На Прорезной (2010) [FLAC (Tracks+.CUE), lossless] garry
0 | 0

0 | 2375

1

20.02.2012 18:25


Яндекс.Метрика powered by Sphinx


В Н И М А Н И Е
Сайт не распространяет и не хранит электронные версии произведений, а лишь бесплатно и без коммерческой выгоды (не требуя взамен платы,
SMS и т.д.) предоставляет доступ к создаваемому пользователями каталогу ссылок на торрент-файлы, которые содержат только списки хеш-сумм.
Убедительная просьба с жалобами обращаться напрямую к пользователю, разместившему торрент файл.

Вверх