Loading...
Error

(Авторская песня, Детская песня) Ирина Богушевская (при участии Андрея Усачёва и Александра Пинегина) - Детская Площадка №1 (2011) [FLAC (Image+.Cue), lossless]

Статистика раздачи
Размер:  389 MB   |    Зарегистрирован:  3 месяца 5 дней   |    Скачан:  2 раза

Полного источника не было: 6 часов

Сидов:  0  |  0 KB/s  ]   Личеров:  0  |  0 KB/s  ]

* - сиды/пиры с внешних источников

   
 
Автор Сообщение

Бишеп Пол:Муж

22-Фев-2018 04:29

Ирина Богушевская (при участии Андрея Усачёва и Александра Пинегина) - Детская Площадка №1

Жанр: Авторская песня, Детская песня
Год выпуска: 2011
Источник: CD
Производитель диска: МД Медиа - UL 113731
Аудиокодек: FLAC
Тип рипа: Image+.CUE
Битрейт аудио: lossless
Продолжительность: 00:49:13


Треклист:
01. Балаган
02. Паповоз
03. Как Кричит Крокодил ?
04. Чики-чики-пых-пых
05. Один Симпатичный Пингвин
06. Жевательная История
07. Дядя Гога
08. Случай С Гражданкой Петровой
09. Царевна Несмеяна
10. Вот Такая Репа
11. Кукарача
12. Вечный Двигатель ( Выдвигается На Нобелевскую Премию )
13. Шурум-Бурум ( Песня О Тишине )
14. За-За-Заячья Песня
15. Зуб
16. После Дождичка В Четверг
17. Над Радугой
18. Шкатулка
19. Зимняя Сказка
20. На Большой-Большой Гитаре

Код:

Exact Audio Copy V1.0 beta 2 from 29. April 2011

EAC extraction logfile from 22. October 2011, 12:08

Ирина Богушевская, Андрей Усачёв, Александр Пинегин / Детская Площадка № 1

Used drive  : PIONEER DVD-RW DVRTD10RS   Adapter: 0  ID: 1

Read mode               : Secure
Utilize accurate stream : Yes
Defeat audio cache      : Yes
Make use of C2 pointers : No

Read offset correction                      : 6
Overread into Lead-In and Lead-Out          : No
Fill up missing offset samples with silence : Yes
Delete leading and trailing silent blocks   : No
Null samples used in CRC calculations       : Yes
Used interface                              : Native Win32 interface for Win NT & 2000

Used output format              : User Defined Encoder
Selected bitrate                : 768 kBit/s
Quality                         : High
Add ID3 tag                     : No
Command line compressor         : C:\Program Files (x86)\codec\flac-1.2.1-win\bin\flac.exe
Additional command line options :  -V -8 -T "Date=%year%" -T "Genre=%genre%" %source%

TOC of the extracted CD

     Track |   Start  |  Length  | Start sector | End sector
    ---------------------------------------------------------
        1  |  0:00.00 |  2:57.26 |         0    |    13300   
        2  |  2:57.26 |  2:44.14 |     13301    |    25614   
        3  |  5:41.40 |  1:54.41 |     25615    |    34205   
        4  |  7:36.06 |  2:14.01 |     34206    |    44256   
        5  |  9:50.07 |  1:58.63 |     44257    |    53169   
        6  | 11:48.70 |  2:10.19 |     53170    |    62938   
        7  | 13:59.14 |  2:40.27 |     62939    |    74965   
        8  | 16:39.41 |  2:15.28 |     74966    |    85118   
        9  | 18:54.69 |  1:58.18 |     85119    |    93986   
       10  | 20:53.12 |  2:51.25 |     93987    |   106836   
       11  | 23:44.37 |  2:18.69 |    106837    |   117255   
       12  | 26:03.31 |  2:23.14 |    117256    |   127994   
       13  | 28:26.45 |  3:02.01 |    127995    |   141645   
       14  | 31:28.46 |  1:17.69 |    141646    |   147489   
       15  | 32:46.40 |  1:22.62 |    147490    |   153701   
       16  | 34:09.27 |  3:31.45 |    153702    |   169571   
       17  | 37:40.72 |  2:46.69 |    169572    |   182090   
       18  | 40:27.66 |  2:15.63 |    182091    |   192278   
       19  | 42:43.54 |  2:28.07 |    192279    |   203385   
       20  | 45:11.61 |  4:01.18 |    203386    |   221478   

Range status and errors

Selected range

     Filename F:\АВТОРСКАЯ ПЕСНЯ\Lossless\Ирина Богушевская\2011 - Детская Площадка № 1\Ирина Богушевская, Андрей Усачёв, Александр Пинегин - Детская Площадка № 1.wav

     Peak level 98.8 %
     Extraction speed 3.8 X
     Range quality 99.9 %
     Test CRC EE24A5DA
     Copy CRC EE24A5DA
     Copy OK

No errors occurred

 
AccurateRip summary
 
Track  1  not present in database
Track  2  not present in database
Track  3  not present in database
Track  4  not present in database
Track  5  not present in database
Track  6  not present in database
Track  7  not present in database
Track  8  not present in database
Track  9  not present in database
Track 10  not present in database
Track 11  not present in database
Track 12  not present in database
Track 13  not present in database
Track 14  not present in database
Track 15  not present in database
Track 16  not present in database
Track 17  not present in database
Track 18  not present in database
Track 19  not present in database
Track 20  not present in database
 
None of the tracks are present in the AccurateRip database

End of status report

==== Log checksum 8AB74448CFE18B9AC63D7CD98B810BB7527EB0DAC28DD101E3BCEDFC1228618C ====

Код:

REM GENRE "Jazz, Pop"
REM DATE 2011
REM DISCID 0A0B8914
REM COMMENT "ExactAudioCopy v1.0b2"
PERFORMER "Ирина Богушевская, Андрей Усачёв, Александр Пинегин"
TITLE "Детская Площадка № 1"
FILE "Ирина Богушевская, Андрей Усачёв, Александр Пинегин - Детская Площадка № 1.flac" WAVE
  TRACK 01 AUDIO
    TITLE "Балаган"
    PERFORMER "Ирина Богушевская, Андрей Усачёв, Александр Пинегин"
    FLAGS DCP
    INDEX 01 00:00:00
  TRACK 02 AUDIO
    TITLE "Паповоз"
    PERFORMER "Ирина Богушевская, Андрей Усачёв, Александр Пинегин"
    FLAGS DCP
    INDEX 00 02:53:26
    INDEX 01 02:57:26
  TRACK 03 AUDIO
    TITLE "Как Кричит Крокодил?"
    PERFORMER "Ирина Богушевская, Андрей Усачёв, Александр Пинегин"
    FLAGS DCP
    INDEX 00 05:37:40
    INDEX 01 05:41:40
  TRACK 04 AUDIO
    TITLE "Чики-чики-пых-пых"
    PERFORMER "Ирина Богушевская, Андрей Усачёв, Александр Пинегин"
    FLAGS DCP
    INDEX 00 07:32:06
    INDEX 01 07:36:06
  TRACK 05 AUDIO
    TITLE "Один Симпатичный Пингвин"
    PERFORMER "Ирина Богушевская, Андрей Усачёв, Александр Пинегин"
    FLAGS DCP
    INDEX 00 09:46:07
    INDEX 01 09:50:07
  TRACK 06 AUDIO
    TITLE "Жевательная История"
    PERFORMER "Ирина Богушевская, Андрей Усачёв, Александр Пинегин"
    FLAGS DCP
    INDEX 00 11:44:70
    INDEX 01 11:48:70
  TRACK 07 AUDIO
    TITLE "Дядя Гога"
    PERFORMER "Ирина Богушевская, Андрей Усачёв, Александр Пинегин"
    FLAGS DCP
    INDEX 00 13:55:14
    INDEX 01 13:59:14
  TRACK 08 AUDIO
    TITLE "Случай С Гражданкой Петровой"
    PERFORMER "Ирина Богушевская, Андрей Усачёв, Александр Пинегин"
    FLAGS DCP
    INDEX 00 16:35:41
    INDEX 01 16:39:41
  TRACK 09 AUDIO
    TITLE "Царевна Несмеяна"
    PERFORMER "Ирина Богушевская, Андрей Усачёв, Александр Пинегин"
    FLAGS DCP
    INDEX 00 18:50:69
    INDEX 01 18:54:69
  TRACK 10 AUDIO
    TITLE "Вот Такая Репа"
    PERFORMER "Ирина Богушевская, Андрей Усачёв, Александр Пинегин"
    FLAGS DCP
    INDEX 00 20:49:12
    INDEX 01 20:53:12
  TRACK 11 AUDIO
    TITLE "Кукарача"
    PERFORMER "Ирина Богушевская, Андрей Усачёв, Александр Пинегин"
    FLAGS DCP
    INDEX 00 23:40:37
    INDEX 01 23:44:37
  TRACK 12 AUDIO
    TITLE "Вечный Двигатель ( Выдвигается На Нобелевскую Премию )"
    PERFORMER "Ирина Богушевская, Андрей Усачёв, Александр Пинегин"
    FLAGS DCP
    INDEX 00 25:59:31
    INDEX 01 26:03:31
  TRACK 13 AUDIO
    TITLE "Шурум-Бурум ( Песня О Тишине )"
    PERFORMER "Ирина Богушевская, Андрей Усачёв, Александр Пинегин"
    FLAGS DCP
    INDEX 00 28:22:45
    INDEX 01 28:26:45
  TRACK 14 AUDIO
    TITLE "За-За-Заячья Песня"
    PERFORMER "Ирина Богушевская, Андрей Усачёв, Александр Пинегин"
    FLAGS DCP
    INDEX 00 31:24:46
    INDEX 01 31:28:46
  TRACK 15 AUDIO
    TITLE "Зуб"
    PERFORMER "Ирина Богушевская, Андрей Усачёв, Александр Пинегин"
    FLAGS DCP
    INDEX 00 32:42:40
    INDEX 01 32:46:40
  TRACK 16 AUDIO
    TITLE "После Дождичка В Четверг"
    PERFORMER "Ирина Богушевская, Андрей Усачёв, Александр Пинегин"
    FLAGS DCP
    INDEX 00 34:05:27
    INDEX 01 34:09:27
  TRACK 17 AUDIO
    TITLE "Над Радугой"
    PERFORMER "Ирина Богушевская, Андрей Усачёв, Александр Пинегин"
    FLAGS DCP
    INDEX 00 37:36:72
    INDEX 01 37:40:72
  TRACK 18 AUDIO
    TITLE "Шкатулка"
    PERFORMER "Ирина Богушевская, Андрей Усачёв, Александр Пинегин"
    FLAGS DCP
    INDEX 00 40:23:66
    INDEX 01 40:27:66
  TRACK 19 AUDIO
    TITLE "Зимняя Сказка"
    PERFORMER "Ирина Богушевская, Андрей Усачёв, Александр Пинегин"
    FLAGS DCP
    INDEX 00 42:39:54
    INDEX 01 42:43:54
  TRACK 20 AUDIO
    TITLE "На Большой-Большой Гитаре"
    PERFORMER "Ирина Богушевская, Андрей Усачёв, Александр Пинегин"
    FLAGS DCP
    INDEX 00 45:07:61
    INDEX 01 45:11:61

Этот торрент недоступен для скачивания без регистрации, однако доступен по публичной magnet-ссылке (источники с публичных трекеров). Перед использованием ссылки прочтите, пожалуйста Пользовательское соглашение, а также как можно дольше оставайтесь на раздаче! Для того, чтобы скачать сам торрент-файл (который видит больше источников), а также для того, чтобы поблагодарить релизера, вам необходимо зарегистрироваться. Если регистрироваться лень - вы можете также попробовать скачать релиз по нашим партнерским ссылкам ниже. Кроме того, зарегистрированным пользователям не показывается всплывающая реклама при скачивании.

[underverse.me].t97546.torrent
Трекер: Зарегистрирован   [ 22.02.2018 04:30 ]  

Статус: проверено (by Бишеп at 22.02.2018 04:32)
Поблагодарили: пока никто не поблагодарил...
Тип торрента: публичный - доступные источники с открытых трекеров: 
Размер: 389 MB (занимает 0,09 DVDR, для записи нужно 1 болванка DVDR/RW)
 
 
Похожие темы
Форум Тема Автор Торрент Отв. Посл. сооб.
Авторские песни, Барды (Авторская песня) Владимир Высоцкий - Полная коллекция (2009) [MP3, 320 kbps] Добрый жмот
6 | 2

11 | 5763

78

31.07.2013 07:22

Авторские песни, Барды (Авторская песня) Тимур Шаов - О чем молчал Герасим... (2010) [MP3, 320 kbps] KonKoSerg
9 | 0

4 | 2522

25

24.08.2013 06:03

Авторские песни, Барды (Авторская песня) Татьяна и Сергей Никитины - Городок, что я выдумал (2011) [MP3, 320 kbps] KonKoSerg
2 | 1

1 | 2786

39

11.05.2013 10:18

Авторские песни, Барды (Авторская песня) Владимир Высоцкий - Дискография [22 СD] (2001-2007) [MP3, 320 CBR] vovanig
2 | 0

2 | 3342

56

07.08.2014 19:18

Авторские песни, Барды (Авторская песня) Семён Слепаков - Альбом 1 (2012) [MP3, 320 kbps CBR] Бишеп
3 | 0

1 | 1972

53

11.05.2013 07:53

Авторские песни, Барды (Авторская песня, Фолк) Никола Емелин (Емеля) - Дискография (6 альбомов) (1989 - 2011) [MP3, 64-320 kbps] gregsib
11 | 0

1 | 1919

22

05.07.2013 18:48

Авторские песни, Барды (Авторская песня) Вячеслав Мясников (Уральские пельмени) - Сборник песен (2014) [MP3, 128-320 kbps CBR] terra07
1 | 0

1 | 2595

42

09.12.2015 14:37

Авторские песни, Барды (Авторская песня) Владимир Высоцкий - Спасибо, что живой. Песни из кинофильма... - и не только (2012) [MP3, 320 kbps CBR] valera87
1 | 0

0 | 1183

7

14.03.2015 16:31

Авторские песни, Барды (Lossless) (Авторская песня) Владимир Высоцкий - Grand Collection. Часть 1 / Часть 2 (2004) [FLAC (Tracks+.CUE), lossless] garry
0 | 0

1 | 1792

12

21.04.2012 07:06

# Авторские песни, Барды (Lossless) (Авторская песня) Евгений Баранник - На Прорезной (2010) [FLAC (Tracks+.CUE), lossless] garry
0 | 0

0 | 2375

1

20.02.2012 18:25


Яндекс.Метрика powered by Sphinx


В Н И М А Н И Е
Сайт не распространяет и не хранит электронные версии произведений, а лишь бесплатно и без коммерческой выгоды (не требуя взамен платы,
SMS и т.д.) предоставляет доступ к создаваемому пользователями каталогу ссылок на торрент-файлы, которые содержат только списки хеш-сумм.
Убедительная просьба с жалобами обращаться напрямую к пользователю, разместившему торрент файл.

Вверх