Loading...
Error

(CardioWave, Folk Rock, Modern Classical) Fleur - Волшебство (2008) [FLAC (Image+.Cue), Lossless]

Статистика раздачи
Размер:  435 MB   |    Зарегистрирован:  3 месяца 10 дней   |    Скачан:  0 раз

Полного источника не было: Никогда

Сидов:  0  |  0 KB/s  ]   Личеров:  0  |  0 KB/s  ]

* - сиды/пиры с внешних источников

   
 
Автор Сообщение

Бишеп Пол:Муж

16-Фев-2018 20:05

Fleur - Волшебство

Жанр: CardioWave, Folk Rock, Modern Classical
Год выпуска: 2008
Источник: CD
Производитель диска: Никитин - ТФН-CD 471/2/08
Аудиокодек: FLAC
Тип рипа: Image+.CUE
Битрейт аудио: lossless
Продолжительность: 01:06:55


Треклист:
01. Интро
02. Пустота
03. Почти реально
04. Формалин
05. Печальный клоун
06. Когда ты грустишь
07. Баллада о белых крыльях и алых лепестках
08. Ремонт
09. Медальон
10. Я сделаю это
11. Никогда
12. Струна
13. Русская рулетка
14. Легион
15. Горизонт


Код:

Exact Audio Copy V1.0 beta 3 from 29. August 2011

EAC extraction logfile from 1. August 2014, 21:06

Flёur / Волшебство

Used drive  : SlimtypeDVD A DS8A4S   Adapter: 1  ID: 0

Read mode               : Secure
Utilize accurate stream : Yes
Defeat audio cache      : Yes
Make use of C2 pointers : No

Read offset correction                      : 6
Overread into Lead-In and Lead-Out          : No
Fill up missing offset samples with silence : Yes
Delete leading and trailing silent blocks   : No
Null samples used in CRC calculations       : Yes
Used interface                              : Native Win32 interface for Win NT & 2000

Used output format              : User Defined Encoder
Selected bitrate                : 1024 kBit/s
Quality                         : High
Add ID3 tag                     : No
Command line compressor         : D:\Program Files\Exact Audio Copy\Flac\flac.exe
Additional command line options : -V -8 -T "Date=%year%" -T "Genre=%genre%" %source%

TOC of the extracted CD

     Track |   Start  |  Length  | Start sector | End sector
    ---------------------------------------------------------
        1  |  0:00.00 |  0:49.25 |         0    |     3699   
        2  |  0:49.25 |  3:54.10 |      3700    |    21259   
        3  |  4:43.35 |  5:11.31 |     21260    |    44615   
        4  |  9:54.66 |  4:04.74 |     44616    |    62989   
        5  | 13:59.65 |  5:02.02 |     62990    |    85641   
        6  | 19:01.67 |  3:24.51 |     85642    |   100992   
        7  | 22:26.43 |  5:31.33 |    100993    |   125850   
        8  | 27:58.01 |  4:02.74 |    125851    |   144074   
        9  | 32:01.00 |  4:38.72 |    144075    |   164996   
       10  | 36:39.72 |  5:09.72 |    164997    |   188243   
       11  | 41:49.69 |  4:30.71 |    188244    |   208564   
       12  | 46:20.65 |  5:36.69 |    208565    |   233833   
       13  | 51:57.59 |  5:34.74 |    233834    |   258957   
       14  | 57:32.58 |  4:58.74 |    258958    |   281381   
       15  | 62:31.57 |  4:23.00 |    281382    |   301106   

Range status and errors

Selected range

     Filename G:\Fleur\Fleur - Волшебство (2008)\Flёur - Волшебство.wav

     Peak level 100.0 %
     Extraction speed 2.0 X
     Range quality 100.0 %
     Test CRC CAA70672
     Copy CRC CAA70672
     Copy OK

No errors occurred

 
AccurateRip summary
 
Track  1  accurately ripped (confidence 5)  [FE04FCF2]  (AR v1)
Track  2  accurately ripped (confidence 6)  [324F1BAD]  (AR v1)
Track  3  accurately ripped (confidence 6)  [DF616C05]  (AR v1)
Track  4  accurately ripped (confidence 6)  [A07646A6]  (AR v1)
Track  5  accurately ripped (confidence 6)  [E8429D50]  (AR v1)
Track  6  accurately ripped (confidence 6)  [A16D2696]  (AR v1)
Track  7  accurately ripped (confidence 5)  [AB7D8882]  (AR v1)
Track  8  accurately ripped (confidence 5)  [4E2F1E18]  (AR v1)
Track  9  accurately ripped (confidence 5)  [C564D83E]  (AR v1)
Track 10  accurately ripped (confidence 5)  [2C5E2441]  (AR v1)
Track 11  accurately ripped (confidence 5)  [F8A1DD0C]  (AR v1)
Track 12  accurately ripped (confidence 5)  [22C390F3]  (AR v1)
Track 13  accurately ripped (confidence 5)  [55ED0D8E]  (AR v1)
Track 14  accurately ripped (confidence 5)  [8F63CB7F]  (AR v1)
Track 15  accurately ripped (confidence 5)  [5D67E210]  (AR v1)
 
All tracks accurately ripped

End of status report

==== Log checksum 1764B4FE8963C5838E4FA23D864E9CF8B0716667D1108026BD4BA53D271FB05B ====

Код:

REM GENRE Rock
REM DATE 2008
REM DISCID C00FAE0F
REM COMMENT "ExactAudioCopy v1.0b3"
PERFORMER "Flёur"
TITLE "Волшебство"
FILE "Flёur - Волшебство.flac" WAVE
  TRACK 01 AUDIO
    TITLE "Интро"
    PERFORMER "Flёur"
    FLAGS DCP
    INDEX 01 00:00:00
  TRACK 02 AUDIO
    TITLE "Пустота"
    PERFORMER "Flёur"
    FLAGS DCP
    INDEX 01 00:49:25
  TRACK 03 AUDIO
    TITLE "Почти реально"
    PERFORMER "Flёur"
    FLAGS DCP
    INDEX 00 04:41:35
    INDEX 01 04:43:35
  TRACK 04 AUDIO
    TITLE "Формалин"
    PERFORMER "Flёur"
    FLAGS DCP
    INDEX 00 09:52:66
    INDEX 01 09:54:66
  TRACK 05 AUDIO
    TITLE "Печальный клоун"
    PERFORMER "Flёur"
    FLAGS DCP
    INDEX 00 13:57:65
    INDEX 01 13:59:65
  TRACK 06 AUDIO
    TITLE "Когда ты грустишь"
    PERFORMER "Flёur"
    FLAGS DCP
    INDEX 00 18:59:67
    INDEX 01 19:01:67
  TRACK 07 AUDIO
    TITLE "Баллада о белых крыльях и алых лепестках"
    PERFORMER "Flёur"
    FLAGS DCP
    INDEX 00 22:24:43
    INDEX 01 22:26:43
  TRACK 08 AUDIO
    TITLE "Ремонт"
    PERFORMER "Flёur"
    FLAGS DCP
    INDEX 00 27:56:01
    INDEX 01 27:58:01
  TRACK 09 AUDIO
    TITLE "Медальон"
    PERFORMER "Flёur"
    FLAGS DCP
    INDEX 00 31:59:00
    INDEX 01 32:01:00
  TRACK 10 AUDIO
    TITLE "Я сделаю это"
    PERFORMER "Flёur"
    FLAGS DCP
    INDEX 00 36:37:72
    INDEX 01 36:39:72
  TRACK 11 AUDIO
    TITLE "Никогда"
    PERFORMER "Flёur"
    FLAGS DCP
    INDEX 00 41:47:69
    INDEX 01 41:49:69
  TRACK 12 AUDIO
    TITLE "Струна"
    PERFORMER "Flёur"
    FLAGS DCP
    INDEX 00 46:18:65
    INDEX 01 46:20:65
  TRACK 13 AUDIO
    TITLE "Русская рулетка"
    PERFORMER "Flёur"
    FLAGS DCP
    INDEX 00 51:55:59
    INDEX 01 51:57:59
  TRACK 14 AUDIO
    TITLE "Легион"
    PERFORMER "Flёur"
    FLAGS DCP
    INDEX 00 57:30:58
    INDEX 01 57:32:58
  TRACK 15 AUDIO
    TITLE "Горизонт"
    PERFORMER "Flёur"
    FLAGS DCP
    INDEX 00 62:29:57
    INDEX 01 62:31:57

Discogs

Этот торрент недоступен для скачивания без регистрации, однако доступен по публичной magnet-ссылке (источники с публичных трекеров). Перед использованием ссылки прочтите, пожалуйста Пользовательское соглашение, а также как можно дольше оставайтесь на раздаче! Для того, чтобы скачать сам торрент-файл (который видит больше источников), а также для того, чтобы поблагодарить релизера, вам необходимо зарегистрироваться. Если регистрироваться лень - вы можете также попробовать скачать релиз по нашим партнерским ссылкам ниже. Кроме того, зарегистрированным пользователям не показывается всплывающая реклама при скачивании.

[underverse.me].t96798.torrent
Трекер: Зарегистрирован   [ 16.02.2018 20:05 ]  

Статус: проверено (by Бишеп at 16.02.2018 20:05)
Поблагодарили: пока никто не поблагодарил...
Тип торрента: публичный - доступные источники с открытых трекеров: 
Размер: 435 MB (занимает 0,1 DVDR, для записи нужно 1 болванка DVDR/RW)
 
 
Похожие темы
Форум Тема Автор Торрент Отв. Посл. сооб.
Отечественный Punk, Grunge, Alternative (Lossless) (CardioWave, Folk Rock, Neo-Classical) Fleur - Знаки (2014) [FLAC (Tracks+.Cue), Lossless] Бишеп
31 | 1

0 | 352

2

14.02.2018 07:07

Отечественный Punk, Grunge, Alternative (Lossless) (CardioWave, Folk Rock) Елена Войнаровская (Fleur) - Присутствие (2016) [FLAC (Tracks+.Cue), Lossless] Бишеп
6 | 0

0 | 147

1

16.02.2018 18:36


Яндекс.Метрика powered by Sphinx


В Н И М А Н И Е
Сайт не распространяет и не хранит электронные версии произведений, а лишь бесплатно и без коммерческой выгоды (не требуя взамен платы,
SMS и т.д.) предоставляет доступ к создаваемому пользователями каталогу ссылок на торрент-файлы, которые содержат только списки хеш-сумм.
Убедительная просьба с жалобами обращаться напрямую к пользователю, разместившему торрент файл.

Вверх