Loading...
Error

(Авторская песня) Песни нашего века - Лучшее. Золотая коллекция (2CD) (2007) [FLAC (Image+.Cue), Lossless]

Статистика раздачи
Размер:  859 MB   |    Зарегистрирован:  3 месяца 10 дней   |    Скачан:  17 раз
Сидов:  1  |  0 KB/s  ]   Личеров:  0  |  0 KB/s  ]

* - сиды/пиры с внешних источников

   
 
Автор Сообщение

Бишеп Пол:Муж

16-Фев-2018 19:36

Песни нашего века - Лучшее. Золотая коллекция

Жанр: Авторская песня
Год выпуска: 2007
Источник: CD
Производитель диска: SAUNDBUGGStudio - LDB 2035-1/2
Аудиокодек: FLAC
Тип рипа: Image+.CUE
Битрейт аудио: lossless
Продолжительность: 02:28:08

Треклист:
01.Ваше благородие
02.Надежды маленький оркестрик
03.Ночная дорога
04.Александра
05.Ты у меня одна
06.Под музыку Вивальди
07.Домбайский вальс
08.Не бродяги, не пропойцы
09.Вершина
10.Люди идут по свету
11.Атланты
12.Песня из к/ф 'Белорусский вокзал'
13.На Большом Каретном
14.Хромой король
15.Весеннее танго
16.Песня о собачке Тябе
17.Контрабандисты
18.Давайте восклицать
19.Мы с тобой давно уже не те
20.Я бы сказал тебе много хорошего
21.Грузинская песня
22.Зелёная карета
23.Фантастика романтика
24.Чистые пруды
25.Над Канадой
26.Не гляди назад
27.Городок
28.Возьмёмся за руки, друзья

Код:

Exact Audio Copy V1.0 beta 3 from 29. August 2011

Отчёт EAC об извлечении, выполненном 3. августа 2013, 11:47

Various Artists / Песни нашего века. Лучшее (CD 1)

Дисковод: PIONEER BD-RW   BDR-207   Adapter: 3  ID: 0

Режим чтения                 : Достоверность
Использование точного потока : Да
Отключение кэша аудио        : Да
Использование указателей C2  : Нет

Коррекция смещения при чтении                     : 667
Способность читать области Lead-in и Lead-out     : Нет
Заполнение пропущенных сэмплов тишиной            : Да
Удаление блоков с тишиной в начале и конце        : Нет
При вычислениях CRC использовались нулевые сэмплы : Да
Интерфейс                                         : Установленный внешний ASPI-интерфейс

Выходной формат          : Пользовательский кодировщик
Выбранный битрейт        : 896 kBit/s
Качество                 : Высокий
Добавление ID3-тега      : Нет
Утилита сжатия           : C:\Program Files (x86)\Exact Audio Copy\Flac\flac.exe
Дополнительные параметры : -V -8 -T "Date=%year%" -T "Genre=%genre%" %source%

TOC извлечённого CD

     Трек |   Старт  | Длительность | Начальный сектор | Конечный сектор
    ---------------------------------------------------------------------
       1  |  0:00.00 |    2:58.28   |           0      |      13377     
       2  |  2:58.28 |    2:03.53   |       13378      |      22655     
       3  |  5:02.06 |    4:14.08   |       22656      |      41713     
       4  |  9:16.14 |    3:39.25   |       41714      |      58163     
       5  | 12:55.39 |    2:41.47   |       58164      |      70285     
       6  | 15:37.11 |    2:43.23   |       70286      |      82533     
       7  | 18:20.34 |    2:28.37   |       82534      |      93670     
       8  | 20:48.71 |    2:08.66   |       93671      |     103336     
       9  | 22:57.62 |    2:30.65   |      103337      |     114651     
      10  | 25:28.52 |    3:10.28   |      114652      |     128929     
      11  | 28:39.05 |    2:02.17   |      128930      |     138096     
      12  | 30:41.22 |    3:11.46   |      138097      |     152467     
      13  | 33:52.68 |    1:46.16   |      152468      |     160433     
      14  | 35:39.09 |    2:14.10   |      160434      |     170493     
      15  | 37:53.19 |    2:35.67   |      170494      |     182185     
      16  | 40:29.11 |    2:35.48   |      182186      |     193858     
      17  | 43:04.59 |    2:43.26   |      193859      |     206109     
      18  | 45:48.10 |    1:45.39   |      206110      |     214023     
      19  | 47:33.49 |    2:36.20   |      214024      |     225743     
      20  | 50:09.69 |    1:58.10   |      225744      |     234603     
      21  | 52:08.04 |    2:44.45   |      234604      |     246948     
      22  | 54:52.49 |    3:34.55   |      246949      |     263053     
      23  | 58:27.29 |    2:28.56   |      263054      |     274209     
      24  | 60:56.10 |    2:22.32   |      274210      |     284891     
      25  | 63:18.42 |    2:52.25   |      284892      |     297816     
      26  | 66:10.67 |    1:48.03   |      297817      |     305919     
      27  | 67:58.70 |    2:28.37   |      305920      |     317056     
      28  | 70:27.32 |    2:52.53   |      317057      |     330009     

Характеристики диапазона извлечения и сообщения об ошибках

Выбранный диапазон

     Имя файла G:\lossless\Барды\VA - Песни нашего века(2CD)\CD 1\Various Artists - Песни нашего века. Лучшее (CD 1).wav

     Пиковый уровень 100.0 %
     Скорость извлечения 7.8 X
     Качество диапазона 100.0 %
     CRC теста C25D7355
     CRC копии C25D7355
     Копирование... OK

Ошибок не произошло

 
AccurateRip: сводка
 
Трек  1  : извлечено точно (доверие 2)  [83D99557]  (AR v1)
Трек  2  : извлечено точно (доверие 2)  [A2B2E9EF]  (AR v1)
Трек  3  : извлечено точно (доверие 2)  [DE77C4F0]  (AR v1)
Трек  4  : извлечено точно (доверие 2)  [8BE91D0A]  (AR v1)
Трек  5  : извлечено точно (доверие 2)  [2460E2FD]  (AR v1)
Трек  6  : извлечено точно (доверие 2)  [3B2AD0FA]  (AR v1)
Трек  7  : извлечено точно (доверие 2)  [F96D14A7]  (AR v1)
Трек  8  : извлечено точно (доверие 2)  [411F039E]  (AR v1)
Трек  9  : извлечено точно (доверие 2)  [7620B657]  (AR v1)
Трек 10  : извлечено точно (доверие 2)  [C767F037]  (AR v1)
Трек 11  : извлечено точно (доверие 2)  [21AB2D9A]  (AR v1)
Трек 12  : извлечено точно (доверие 2)  [94BB9078]  (AR v1)
Трек 13  : извлечено точно (доверие 2)  [1597FCB2]  (AR v1)
Трек 14  : извлечено точно (доверие 2)  [FC096EC9]  (AR v1)
Трек 15  : извлечено точно (доверие 2)  [199DADDD]  (AR v1)
Трек 16  : извлечено точно (доверие 2)  [482F5C09]  (AR v1)
Трек 17  : извлечено точно (доверие 2)  [AAECFA07]  (AR v1)
Трек 18  : извлечено точно (доверие 2)  [B8224CBA]  (AR v1)
Трек 19  : извлечено точно (доверие 2)  [DCA278C4]  (AR v1)
Трек 20  : извлечено точно (доверие 2)  [5593BD37]  (AR v1)
Трек 21  : извлечено точно (доверие 2)  [599A1678]  (AR v1)
Трек 22  : извлечено точно (доверие 2)  [01FF867D]  (AR v1)
Трек 23  : извлечено точно (доверие 2)  [6355D4B3]  (AR v1)
Трек 24  : извлечено точно (доверие 2)  [AE599AEF]  (AR v1)
Трек 25  : извлечено точно (доверие 2)  [9C5B2825]  (AR v1)
Трек 26  : извлечено точно (доверие 2)  [0C15AF00]  (AR v1)
Трек 27  : извлечено точно (доверие 2)  [451CF19E]  (AR v1)
Трек 28  : извлечено точно (доверие 2)  [38DFDA85]  (AR v1)
 
Все треки извлечены точно

Конец отчёта

==== Контрольная сумма отчёта FB1DC0A17CCD1E8EDADF10357809A454AA98DBCFB2D4A73F8D1CDA8D76A5CEAD ====

Код:

REM GENRE "авторская песня"
REM DATE 2007
REM DISCID 7711301C
REM COMMENT "ExactAudioCopy v1.0b3"
PERFORMER "Various Artists"
TITLE "Песни нашего века. Лучшее (CD 1)"
FILE "Various Artists - Песни нашего века. Лучшее (CD 1).flac" WAVE
  TRACK 01 AUDIO
    TITLE "Ваше благородие"
    PERFORMER "Various Artists"
    FLAGS DCP
    INDEX 01 00:00:00
  TRACK 02 AUDIO
    TITLE "Надежды маленький оркестрик"
    PERFORMER "Various Artists"
    FLAGS DCP
    INDEX 00 02:56:28
    INDEX 01 02:58:28
  TRACK 03 AUDIO
    TITLE "Ночная дорога"
    PERFORMER "Various Artists"
    FLAGS DCP
    INDEX 00 05:00:06
    INDEX 01 05:02:06
  TRACK 04 AUDIO
    TITLE "Александра"
    PERFORMER "Various Artists"
    FLAGS DCP
    INDEX 00 09:14:14
    INDEX 01 09:16:14
  TRACK 05 AUDIO
    TITLE "Ты у меня одна"
    PERFORMER "Various Artists"
    FLAGS DCP
    INDEX 00 12:53:39
    INDEX 01 12:55:39
  TRACK 06 AUDIO
    TITLE "Под музыку Вивальди"
    PERFORMER "Various Artists"
    FLAGS DCP
    INDEX 00 15:35:11
    INDEX 01 15:37:11
  TRACK 07 AUDIO
    TITLE "Домбайский вальс"
    PERFORMER "Various Artists"
    FLAGS DCP
    INDEX 00 18:18:34
    INDEX 01 18:20:34
  TRACK 08 AUDIO
    TITLE "Не пропойцы, не бродяги"
    PERFORMER "Various Artists"
    FLAGS DCP
    INDEX 00 20:46:71
    INDEX 01 20:48:71
  TRACK 09 AUDIO
    TITLE "Вершина"
    PERFORMER "Various Artists"
    FLAGS DCP
    INDEX 00 22:55:62
    INDEX 01 22:57:62
  TRACK 10 AUDIO
    TITLE "Люди идут по свету"
    PERFORMER "Various Artists"
    FLAGS DCP
    INDEX 00 25:26:52
    INDEX 01 25:28:52
  TRACK 11 AUDIO
    TITLE "Атланты"
    PERFORMER "Various Artists"
    FLAGS DCP
    INDEX 00 28:37:05
    INDEX 01 28:39:05
  TRACK 12 AUDIO
    TITLE "Песня из к/ф 'Белорусский вокзал'"
    PERFORMER "Various Artists"
    FLAGS DCP
    INDEX 00 30:39:22
    INDEX 01 30:41:22
  TRACK 13 AUDIO
    TITLE "На Большом Каретном"
    PERFORMER "Various Artists"
    FLAGS DCP
    INDEX 00 33:50:68
    INDEX 01 33:52:68
  TRACK 14 AUDIO
    TITLE "Хромой король"
    PERFORMER "Various Artists"
    FLAGS DCP
    INDEX 00 35:37:09
    INDEX 01 35:39:09
  TRACK 15 AUDIO
    TITLE "Весеннее танго"
    PERFORMER "Various Artists"
    FLAGS DCP
    INDEX 00 37:51:19
    INDEX 01 37:53:19
  TRACK 16 AUDIO
    TITLE "Песня о собачке Тябе"
    PERFORMER "Various Artists"
    FLAGS DCP
    INDEX 00 40:27:11
    INDEX 01 40:29:11
  TRACK 17 AUDIO
    TITLE "Контрабандисты"
    PERFORMER "Various Artists"
    FLAGS DCP
    INDEX 00 43:02:59
    INDEX 01 43:04:59
  TRACK 18 AUDIO
    TITLE "Давайте восклицать"
    PERFORMER "Various Artists"
    FLAGS DCP
    INDEX 00 45:46:10
    INDEX 01 45:48:10
  TRACK 19 AUDIO
    TITLE "Мы с тобой давно уже не те"
    PERFORMER "Various Artists"
    FLAGS DCP
    INDEX 00 47:31:49
    INDEX 01 47:33:49
  TRACK 20 AUDIO
    TITLE "Я бы сказал тебе много хорошего"
    PERFORMER "Various Artists"
    FLAGS DCP
    INDEX 00 50:07:69
    INDEX 01 50:09:69
  TRACK 21 AUDIO
    TITLE "Грузинская песня"
    PERFORMER "Various Artists"
    FLAGS DCP
    INDEX 00 52:06:04
    INDEX 01 52:08:04
  TRACK 22 AUDIO
    TITLE "Зелёная карета"
    PERFORMER "Various Artists"
    FLAGS DCP
    INDEX 00 54:50:49
    INDEX 01 54:52:49
  TRACK 23 AUDIO
    TITLE "Фантастика романтика"
    PERFORMER "Various Artists"
    FLAGS DCP
    INDEX 00 58:25:29
    INDEX 01 58:27:29
  TRACK 24 AUDIO
    TITLE "Чистые пруды"
    PERFORMER "Various Artists"
    FLAGS DCP
    INDEX 00 60:54:10
    INDEX 01 60:56:10
  TRACK 25 AUDIO
    TITLE "Над Канадой"
    PERFORMER "Various Artists"
    FLAGS DCP
    INDEX 00 63:16:42
    INDEX 01 63:18:42
  TRACK 26 AUDIO
    TITLE "Не гляди назад"
    PERFORMER "Various Artists"
    FLAGS DCP
    INDEX 00 66:08:67
    INDEX 01 66:10:67
  TRACK 27 AUDIO
    TITLE "Городок"
    PERFORMER "Various Artists"
    FLAGS DCP
    INDEX 00 67:56:70
    INDEX 01 67:58:70
  TRACK 28 AUDIO
    TITLE "Возьмемся за руки, друзья"
    PERFORMER "Various Artists"
    FLAGS DCP
    INDEX 00 70:25:32
    INDEX 01 70:27:32
Треклист:
01.За туманом
02.На далёкой Амазонке
03.Милая моя
04.Гренада
05.Брич-Мулла
06.Снег
07.Бригантина
08.Отважный капитан
09.Песня полярных лётчиков
10.Рыба-кит
11.Альма-матер
12.Охотный ряд
13.Какой большой ветер
14.Чёрное море
15.Надя, Наденька
16.На Смоленской дороге
17.Вспомните,ребята
18.Охота на волков
19.Дожди
20.Перекаты
21.Губы окаянные
22.Ну пожалуйста
23.Вечер бродит
24.Пароход
25.Псков
26.Мокрый вальс
27.А всё кончается
28.До свиданья, дорогие

Код:

Exact Audio Copy V1.0 beta 3 from 29. August 2011

Отчёт EAC об извлечении, выполненном 3. августа 2013, 11:06

Various Artists / Песни нашего века. Лучшее (CD 2)

Дисковод: PIONEER BD-RW   BDR-207   Adapter: 3  ID: 0

Режим чтения                 : Достоверность
Использование точного потока : Да
Отключение кэша аудио        : Да
Использование указателей C2  : Нет

Коррекция смещения при чтении                     : 667
Способность читать области Lead-in и Lead-out     : Нет
Заполнение пропущенных сэмплов тишиной            : Да
Удаление блоков с тишиной в начале и конце        : Нет
При вычислениях CRC использовались нулевые сэмплы : Да
Интерфейс                                         : Установленный внешний ASPI-интерфейс

Выходной формат          : Пользовательский кодировщик
Выбранный битрейт        : 896 kBit/s
Качество                 : Высокий
Добавление ID3-тега      : Нет
Утилита сжатия           : C:\Program Files (x86)\Exact Audio Copy\Flac\flac.exe
Дополнительные параметры : -V -8 -T "Date=%year%" -T "Genre=%genre%" %source%

TOC извлечённого CD

     Трек |   Старт  | Длительность | Начальный сектор | Конечный сектор
    ---------------------------------------------------------------------
       1  |  0:00.00 |    2:24.45   |           0      |      10844     
       2  |  2:24.45 |    2:14.23   |       10845      |      20917     
       3  |  4:38.68 |    2:56.45   |       20918      |      34162     
       4  |  7:35.38 |    3:09.29   |       34163      |      48366     
       5  | 10:44.67 |    4:09.41   |       48367      |      67082     
       6  | 14:54.33 |    3:40.66   |       67083      |      83648     
       7  | 18:35.24 |    2:27.04   |       83649      |      94677     
       8  | 21:02.28 |    2:26.61   |       94678      |     105688     
       9  | 23:29.14 |    2:02.34   |      105689      |     114872     
      10  | 25:31.48 |    2:14.22   |      114873      |     124944     
      11  | 27:45.70 |    3:15.48   |      124945      |     139617     
      12  | 31:01.43 |    2:19.30   |      139618      |     150072     
      13  | 33:20.73 |    2:35.72   |      150073      |     161769     
      14  | 35:56.70 |    2:22.07   |      161770      |     172426     
      15  | 38:19.02 |    2:05.06   |      172427      |     181807     
      16  | 40:24.08 |    2:38.34   |      181808      |     193691     
      17  | 43:02.42 |    2:44.02   |      193692      |     205993     
      18  | 45:46.44 |    3:00.24   |      205994      |     219517     
      19  | 48:46.68 |    2:52.68   |      219518      |     232485     
      20  | 51:39.61 |    2:16.28   |      232486      |     242713     
      21  | 53:56.14 |    2:23.71   |      242714      |     253509     
      22  | 56:20.10 |    2:30.27   |      253510      |     264786     
      23  | 58:50.37 |    2:03.51   |      264787      |     274062     
      24  | 60:54.13 |    2:13.07   |      274063      |     284044     
      25  | 63:07.20 |    3:53.03   |      284045      |     301522     
      26  | 67:00.23 |    3:00.31   |      301523      |     315053     
      27  | 70:00.54 |    2:13.51   |      315054      |     325079     
      28  | 72:14.30 |    2:33.38   |      325080      |     336592     

Характеристики диапазона извлечения и сообщения об ошибках

Выбранный диапазон

     Имя файла G:\lossless\Барды\VA - Песни нашего века(2CD)\CD 2\Various Artists - Песни нашего века. Лучшее (CD 2).wav

     Пиковый уровень 99.8 %
     Скорость извлечения 7.7 X
     Качество диапазона 100.0 %
     CRC теста 15D1901F
     CRC копии 15D1901F
     Копирование... OK

Ошибок не произошло

 
AccurateRip: сводка
 
Трек  1  : извлечено точно (доверие 2)  [A8500C9F]  (AR v1)
Трек  2  : извлечено точно (доверие 2)  [32579318]  (AR v1)
Трек  3  : извлечено точно (доверие 2)  [D8D51BBD]  (AR v1)
Трек  4  : извлечено точно (доверие 2)  [D82589C9]  (AR v1)
Трек  5  : извлечено точно (доверие 2)  [B7D20599]  (AR v1)
Трек  6  : извлечено точно (доверие 2)  [3AE22F76]  (AR v1)
Трек  7  : извлечено точно (доверие 2)  [1306DADD]  (AR v1)
Трек  8  : извлечено точно (доверие 2)  [16BF4046]  (AR v1)
Трек  9  : извлечено точно (доверие 2)  [E124DE2E]  (AR v1)
Трек 10  : извлечено точно (доверие 2)  [345BA457]  (AR v1)
Трек 11  : извлечено точно (доверие 2)  [9BBCCD7E]  (AR v1)
Трек 12  : извлечено точно (доверие 2)  [EC20207A]  (AR v1)
Трек 13  : извлечено точно (доверие 2)  [474F268E]  (AR v1)
Трек 14  : извлечено точно (доверие 2)  [9164DC6E]  (AR v1)
Трек 15  : извлечено точно (доверие 2)  [5A7C8C9B]  (AR v1)
Трек 16  : извлечено точно (доверие 2)  [D4E7E14C]  (AR v1)
Трек 17  : извлечено точно (доверие 2)  [76111A71]  (AR v1)
Трек 18  : извлечено точно (доверие 2)  [39B1FB37]  (AR v1)
Трек 19  : извлечено точно (доверие 2)  [1EAFDF0D]  (AR v1)
Трек 20  : извлечено точно (доверие 2)  [B40F2DFA]  (AR v1)
Трек 21  : извлечено точно (доверие 2)  [0EC56D56]  (AR v1)
Трек 22  : извлечено точно (доверие 2)  [0B4974EF]  (AR v1)
Трек 23  : извлечено точно (доверие 2)  [F7612B15]  (AR v1)
Трек 24  : извлечено точно (доверие 2)  [55E9830A]  (AR v1)
Трек 25  : извлечено точно (доверие 2)  [69913174]  (AR v1)
Трек 26  : извлечено точно (доверие 2)  [989B2000]  (AR v1)
Трек 27  : извлечено точно (доверие 2)  [84D8DDBC]  (AR v1)
Трек 28  : извлечено точно (доверие 2)  [BA9994F3]  (AR v1)
 
Все треки извлечены точно

Конец отчёта

==== Контрольная сумма отчёта B9BB81788D7CD158450B4E802D1570670116089F56A251C3BEDFD7097BA81CB3 ====

Код:

REM GENRE "Авторская песня"
REM DATE 2007
REM DISCID 8511871C
REM COMMENT "ExactAudioCopy v1.0b3"
PERFORMER "Various Artists"
TITLE "Песни нашего века. Лучшее (CD 2)"
FILE "Various Artists - Песни нашего века. Лучшее (CD 2).flac" WAVE
  TRACK 01 AUDIO
    TITLE "За туманом"
    PERFORMER "Various Artists"
    FLAGS DCP
    INDEX 01 00:00:00
  TRACK 02 AUDIO
    TITLE "На далёкой Амазонке"
    PERFORMER "Various Artists"
    FLAGS DCP
    INDEX 00 02:22:45
    INDEX 01 02:24:45
  TRACK 03 AUDIO
    TITLE "Милая моя"
    PERFORMER "Various Artists"
    FLAGS DCP
    INDEX 00 04:36:68
    INDEX 01 04:38:68
  TRACK 04 AUDIO
    TITLE "Гренада"
    PERFORMER "Various Artists"
    FLAGS DCP
    INDEX 00 07:33:38
    INDEX 01 07:35:38
  TRACK 05 AUDIO
    TITLE "Брич-Мулла"
    PERFORMER "Various Artists"
    FLAGS DCP
    INDEX 00 10:42:67
    INDEX 01 10:44:67
  TRACK 06 AUDIO
    TITLE "Снег"
    PERFORMER "Various Artists"
    FLAGS DCP
    INDEX 00 14:52:33
    INDEX 01 14:54:33
  TRACK 07 AUDIO
    TITLE "Бригантина"
    PERFORMER "Various Artists"
    FLAGS DCP
    INDEX 00 18:33:24
    INDEX 01 18:35:24
  TRACK 08 AUDIO
    TITLE "Отважный капитан"
    PERFORMER "Various Artists"
    FLAGS DCP
    INDEX 00 21:00:28
    INDEX 01 21:02:28
  TRACK 09 AUDIO
    TITLE "Песня полярных летчиков"
    PERFORMER "Various Artists"
    FLAGS DCP
    INDEX 00 23:27:14
    INDEX 01 23:29:14
  TRACK 10 AUDIO
    TITLE "Рыба-кит"
    PERFORMER "Various Artists"
    FLAGS DCP
    INDEX 00 25:29:48
    INDEX 01 25:31:48
  TRACK 11 AUDIO
    TITLE "Альиа-Матер"
    PERFORMER "Various Artists"
    FLAGS DCP
    INDEX 00 27:43:70
    INDEX 01 27:45:70
  TRACK 12 AUDIO
    TITLE "Охотный ряд"
    PERFORMER "Various Artists"
    FLAGS DCP
    INDEX 00 30:59:43
    INDEX 01 31:01:43
  TRACK 13 AUDIO
    TITLE "Какой большой ветер"
    PERFORMER "Various Artists"
    FLAGS DCP
    INDEX 00 33:18:73
    INDEX 01 33:20:73
  TRACK 14 AUDIO
    TITLE "Чёрное море"
    PERFORMER "Various Artists"
    FLAGS DCP
    INDEX 00 35:54:70
    INDEX 01 35:56:70
  TRACK 15 AUDIO
    TITLE "Надя, Наденька"
    PERFORMER "Various Artists"
    FLAGS DCP
    INDEX 00 38:17:02
    INDEX 01 38:19:02
  TRACK 16 AUDIO
    TITLE "На Смоленской дороге"
    PERFORMER "Various Artists"
    FLAGS DCP
    INDEX 00 40:22:08
    INDEX 01 40:24:08
  TRACK 17 AUDIO
    TITLE "Вспомните, ребята"
    PERFORMER "Various Artists"
    FLAGS DCP
    INDEX 00 43:00:42
    INDEX 01 43:02:42
  TRACK 18 AUDIO
    TITLE "Охота на волков"
    PERFORMER "Various Artists"
    FLAGS DCP
    INDEX 00 45:44:44
    INDEX 01 45:46:44
  TRACK 19 AUDIO
    TITLE "Дожди"
    PERFORMER "Various Artists"
    FLAGS DCP
    INDEX 00 48:44:68
    INDEX 01 48:46:68
  TRACK 20 AUDIO
    TITLE "Перекаты"
    PERFORMER "Various Artists"
    FLAGS DCP
    INDEX 00 51:37:61
    INDEX 01 51:39:61
  TRACK 21 AUDIO
    TITLE "Губы окаянные"
    PERFORMER "Various Artists"
    FLAGS DCP
    INDEX 00 53:54:14
    INDEX 01 53:56:14
  TRACK 22 AUDIO
    TITLE "Ну, пожалуйста"
    PERFORMER "Various Artists"
    FLAGS DCP
    INDEX 00 56:18:10
    INDEX 01 56:20:10
  TRACK 23 AUDIO
    TITLE "Вечер бродит"
    PERFORMER "Various Artists"
    FLAGS DCP
    INDEX 00 58:48:37
    INDEX 01 58:50:37
  TRACK 24 AUDIO
    TITLE "Пароход"
    PERFORMER "Various Artists"
    FLAGS DCP
    INDEX 00 60:52:13
    INDEX 01 60:54:13
  TRACK 25 AUDIO
    TITLE "Псков"
    PERFORMER "Various Artists"
    FLAGS DCP
    INDEX 00 63:05:20
    INDEX 01 63:07:20
  TRACK 26 AUDIO
    TITLE "Мокрый вальс"
    PERFORMER "Various Artists"
    FLAGS DCP
    INDEX 00 66:58:23
    INDEX 01 67:00:23
  TRACK 27 AUDIO
    TITLE "Всё кончается"
    PERFORMER "Various Artists"
    FLAGS DCP
    INDEX 00 69:58:54
    INDEX 01 70:00:54
  TRACK 28 AUDIO
    TITLE "Досвиданья, дорогие"
    PERFORMER "Various Artists"
    FLAGS DCP
    INDEX 00 72:12:30
    INDEX 01 72:14:30

WikipediA



Этот торрент недоступен для скачивания без регистрации, однако доступен по публичной magnet-ссылке (источники с публичных трекеров). Перед использованием ссылки прочтите, пожалуйста Пользовательское соглашение, а также как можно дольше оставайтесь на раздаче! Для того, чтобы скачать сам торрент-файл (который видит больше источников), а также для того, чтобы поблагодарить релизера, вам необходимо зарегистрироваться. Если регистрироваться лень - вы можете также попробовать скачать релиз по нашим партнерским ссылкам ниже. Кроме того, зарегистрированным пользователям не показывается всплывающая реклама при скачивании.

[underverse.me].t96783.torrent
Трекер: Зарегистрирован   [ 16.02.2018 19:36 ]  

Статус: проверено (by Бишеп at 16.02.2018 19:36)
Поблагодарили: 1 человек
Тип торрента: публичный - доступные источники с открытых трекеров: 
Размер: 859 MB (занимает 0,19 DVDR, для записи нужно 1 болванка DVDR/RW)
 
 
Похожие темы
Форум Тема Автор Торрент Отв. Посл. сооб.
Авторские песни, Барды (Авторская песня) Владимир Высоцкий - Полная коллекция (2009) [MP3, 320 kbps] Добрый жмот
6 | 2

11 | 5762

78

31.07.2013 07:22

Авторские песни, Барды (Авторская песня) Тимур Шаов - О чем молчал Герасим... (2010) [MP3, 320 kbps] KonKoSerg
11 | 0

4 | 2521

25

24.08.2013 06:03

Авторские песни, Барды (Авторская песня) Татьяна и Сергей Никитины - Городок, что я выдумал (2011) [MP3, 320 kbps] KonKoSerg
2 | 1

1 | 2786

39

11.05.2013 10:18

Авторские песни, Барды (Авторская песня) Владимир Высоцкий - Дискография [22 СD] (2001-2007) [MP3, 320 CBR] vovanig
2 | 0

2 | 3341

56

07.08.2014 19:18

Авторские песни, Барды (Авторская песня) Семён Слепаков - Альбом 1 (2012) [MP3, 320 kbps CBR] Бишеп
2 | 0

1 | 1971

53

11.05.2013 07:53

Авторские песни, Барды (Авторская песня, Фолк) Никола Емелин (Емеля) - Дискография (6 альбомов) (1989 - 2011) [MP3, 64-320 kbps] gregsib
11 | 0

1 | 1918

22

05.07.2013 18:48

Авторские песни, Барды (Авторская песня) Вячеслав Мясников (Уральские пельмени) - Сборник песен (2014) [MP3, 128-320 kbps CBR] terra07
1 | 0

1 | 2594

42

09.12.2015 14:37

Авторские песни, Барды (Авторская песня) Владимир Высоцкий - Спасибо, что живой. Песни из кинофильма... - и не только (2012) [MP3, 320 kbps CBR] valera87
1 | 0

0 | 1183

7

14.03.2015 16:31

Авторские песни, Барды (Lossless) (Авторская песня) Владимир Высоцкий - Grand Collection. Часть 1 / Часть 2 (2004) [FLAC (Tracks+.CUE), lossless] garry
0 | 0

1 | 1791

12

21.04.2012 07:06

# Авторские песни, Барды (Lossless) (Авторская песня) Евгений Баранник - На Прорезной (2010) [FLAC (Tracks+.CUE), lossless] garry
0 | 0

0 | 2375

1

20.02.2012 18:25

kryh_123 Пол:Муж

27-Фев-2018 07:29

Давно искал :D

kryh_123 Пол:Муж

27-Фев-2018 07:56

не качает. :twisted:

Бишеп Пол:Муж

27-Фев-2018 08:12

kryh_123 писал(а):

не качает. :twisted:
Качает :good:

Яндекс.Метрика powered by Sphinx


В Н И М А Н И Е
Сайт не распространяет и не хранит электронные версии произведений, а лишь бесплатно и без коммерческой выгоды (не требуя взамен платы,
SMS и т.д.) предоставляет доступ к создаваемому пользователями каталогу ссылок на торрент-файлы, которые содержат только списки хеш-сумм.
Убедительная просьба с жалобами обращаться напрямую к пользователю, разместившему торрент файл.

Вверх