Loading...
Error

(Alternative Rock) Пикник - Лучшее (2CD) (2010) [FLAC (Image+.Cue), Lossless]

Статистика раздачи
Размер:  1 GB   |    Зарегистрирован:  3 месяца 11 дней   |    Скачан:  13 раз

Полного источника не было: 26 минут

Сидов:  0  |  0 KB/s  ]   Личеров:  0  |  0 KB/s  ]

* - сиды/пиры с внешних источников

   
 
Автор Сообщение

Бишеп Пол:Муж

16-Фев-2018 17:00

Пикник - Лучшее

Жанр: Alternative Rock
Год выпуска: 2010
Источник: CD
Производитель диска: Топ-Саунд/Наше Радио - 22472-1/2
Аудиокодек: FLAC
Тип рипа: Image+.CUE
Битрейт аудио: lossless
Продолжительность: 02:37:29

Треклист:
01. Говорит и Показывает
02. Театр абсурда
03. Железные мантры
04. Мракобесие и джаз
05. Уйду-останусь
06. Королевство кривых
07. Немного огня
08. Иероглиф
09. Египтянин
10. Вечер
11. Лишь влюбленному вампиру
12. Лицо
13. Мы, как трепетные птицы
14. Фиолетово-черный
15. И летает голова то вверх, то вниз
16. Самый звонкий крик - тишина
17. Искры около рта


Код:

Exact Audio Copy V1.0 beta 3 from 29. August 2011

EAC extraction logfile from 13. December 2014, 0:54

Пикник / Пикник  - Лучшее CD1

Used drive  : Optiarc DVD RW AD-7203S   Adapter: 2  ID: 1

Read mode               : Secure
Utilize accurate stream : Yes
Defeat audio cache      : Yes
Make use of C2 pointers : No

Read offset correction                      : 48
Overread into Lead-In and Lead-Out          : No
Fill up missing offset samples with silence : Yes
Delete leading and trailing silent blocks   : No
Null samples used in CRC calculations       : Yes
Used interface                              : Native Win32 interface for Win NT & 2000

Used output format : Internal WAV Routines
Sample format      : 44.100 Hz; 16 Bit; Stereo

TOC of the extracted CD

     Track |   Start  |  Length  | Start sector | End sector
    ---------------------------------------------------------
        1  |  0:00.00 |  4:17.56 |         0    |    19330   
        2  |  4:17.56 |  3:48.03 |     19331    |    36433   
        3  |  8:05.59 |  4:38.52 |     36434    |    57335   
        4  | 12:44.36 |  3:55.63 |     57336    |    75023   
        5  | 16:40.24 |  3:14.61 |     75024    |    89634   
        6  | 19:55.10 |  4:48.14 |     89635    |   111248   
        7  | 24:43.24 |  4:08.49 |    111249    |   129897   
        8  | 28:51.73 |  6:14.03 |    129898    |   157950   
        9  | 35:06.01 |  5:10.27 |    157951    |   181227   
       10  | 40:16.28 |  5:15.37 |    181228    |   204889   
       11  | 45:31.65 |  5:39.40 |    204890    |   230354   
       12  | 51:11.30 |  3:57.39 |    230355    |   248168   
       13  | 55:08.69 |  5:20.44 |    248169    |   272212   
       14  | 60:29.38 |  4:09.56 |    272213    |   290943   
       15  | 64:39.19 |  4:57.23 |    290944    |   313241   
       16  | 69:36.42 |  6:00.37 |    313242    |   340278   
       17  | 75:37.04 |  4:09.13 |    340279    |   358966   

Range status and errors

Selected range

     Filename E:\хитрая папка\Новая папка (3)\Пикник - Пикник  - Лучшее CD1.wav

     Peak level 100.0 %
     Extraction speed 4.5 X
     Range quality 100.0 %
     Test CRC 7FB620BA
     Copy CRC 7FB620BA
     Copy OK

No errors occurred

 
AccurateRip summary
 
Track  1  not present in database
Track  2  not present in database
Track  3  not present in database
Track  4  not present in database
Track  5  not present in database
Track  6  not present in database
Track  7  not present in database
Track  8  not present in database
Track  9  not present in database
Track 10  not present in database
Track 11  not present in database
Track 12  not present in database
Track 13  not present in database
Track 14  not present in database
Track 15  not present in database
Track 16  not present in database
Track 17  not present in database
 
None of the tracks are present in the AccurateRip database

End of status report

==== Log checksum BF326C6813576B35CEC50F1443C235095851EB17046A3FED6E86BBC09A97D3F4 ====

Код:

REM GENRE "Rock"
REM DATE 2010
REM DISCID F412B211
REM COMMENT "ExactAudioCopy v1.0b3"
PERFORMER "Пикник"
TITLE "Лучшее"
FILE "Пикник - Лучшее.flac" WAVE
  TRACK 01 AUDIO
    TITLE "Говорит и Показывает"
    PERFORMER "Пикник"
    FLAGS DCP
    INDEX 01 00:00:00
  TRACK 02 AUDIO
    TITLE "Театр абсурда"
    PERFORMER "Пикник"
    FLAGS DCP
    INDEX 00 04:15:56
    INDEX 01 04:17:56
  TRACK 03 AUDIO
    TITLE "Железные мантры"
    PERFORMER "Пикник"
    FLAGS DCP
    INDEX 00 08:03:59
    INDEX 01 08:05:59
  TRACK 04 AUDIO
    TITLE "Мракобесие и джаз"
    PERFORMER "Пикник"
    FLAGS DCP
    INDEX 00 12:42:36
    INDEX 01 12:44:36
  TRACK 05 AUDIO
    TITLE "Уйду-останусь"
    PERFORMER "Пикник"
    FLAGS DCP
    INDEX 00 16:38:24
    INDEX 01 16:40:24
  TRACK 06 AUDIO
    TITLE "Королевство кривых"
    PERFORMER "Пикник"
    FLAGS DCP
    INDEX 00 19:53:10
    INDEX 01 19:55:10
  TRACK 07 AUDIO
    TITLE "Немного огня"
    PERFORMER "Пикник"
    FLAGS DCP
    INDEX 00 24:41:24
    INDEX 01 24:43:24
  TRACK 08 AUDIO
    TITLE "Иероглиф"
    PERFORMER "Пикник"
    FLAGS DCP
    INDEX 00 28:49:73
    INDEX 01 28:51:73
  TRACK 09 AUDIO
    TITLE "Египтянин"
    PERFORMER "Пикник"
    FLAGS DCP
    INDEX 00 35:04:01
    INDEX 01 35:06:01
  TRACK 10 AUDIO
    TITLE "Вечер"
    PERFORMER "Пикник"
    FLAGS DCP
    INDEX 00 40:14:28
    INDEX 01 40:16:28
  TRACK 11 AUDIO
    TITLE "Лишь влюбленному вампиру"
    PERFORMER "Пикник"
    FLAGS DCP
    INDEX 00 45:29:65
    INDEX 01 45:31:65
  TRACK 12 AUDIO
    TITLE "Лицо"
    PERFORMER "Пикник"
    FLAGS DCP
    INDEX 00 51:09:30
    INDEX 01 51:11:30
  TRACK 13 AUDIO
    TITLE "Мы, как трепетные птицы"
    PERFORMER "Пикник"
    FLAGS DCP
    INDEX 00 55:06:69
    INDEX 01 55:08:69
  TRACK 14 AUDIO
    TITLE "Фиолетово-черный"
    PERFORMER "Пикник"
    FLAGS DCP
    INDEX 00 60:27:38
    INDEX 01 60:29:38
  TRACK 15 AUDIO
    TITLE "И летает голова то вверх, то вниз"
    PERFORMER "Пикник"
    FLAGS DCP
    INDEX 00 64:37:19
    INDEX 01 64:39:19
  TRACK 16 AUDIO
    TITLE "Самый звонкий крик - тишина"
    PERFORMER "Пикник"
    FLAGS DCP
    INDEX 00 69:34:42
    INDEX 01 69:36:42
  TRACK 17 AUDIO
    TITLE "Искры около рта"
    PERFORMER "Пикник"
    FLAGS DCP
    INDEX 00 75:35:04
    INDEX 01 75:37:04
Треклист:
01. Кукла с человеческим лицом
02. Недобитый романтик
03. Из мышеловки
04. У Шамана три руки
05. Настоящие дни
06. Фетиш
07. Заратустра
08. Твое сердце должно быть моим
09. Шарманка
10. До содома далеко
11. Ночь
12. Ни твое ни мое
13. Смутные дни
14. Телефон
15. Я почти итальянец
16. Себе не найдя двойников
17. Немое кино

Код:

Exact Audio Copy V1.0 beta 3 from 29. August 2011

EAC extraction logfile from 13. December 2014, 1:33

Пикник / Пикник  - Лучшее CD2

Used drive  : Optiarc DVD RW AD-7203S   Adapter: 2  ID: 1

Read mode               : Secure
Utilize accurate stream : Yes
Defeat audio cache      : Yes
Make use of C2 pointers : No

Read offset correction                      : 48
Overread into Lead-In and Lead-Out          : No
Fill up missing offset samples with silence : Yes
Delete leading and trailing silent blocks   : No
Null samples used in CRC calculations       : Yes
Used interface                              : Native Win32 interface for Win NT & 2000

Used output format : Internal WAV Routines
Sample format      : 44.100 Hz; 16 Bit; Stereo

TOC of the extracted CD

     Track |   Start  |  Length  | Start sector | End sector
    ---------------------------------------------------------
        1  |  0:00.00 |  3:56.67 |         0    |    17766   
        2  |  3:56.67 |  4:12.36 |     17767    |    36702   
        3  |  8:09.28 |  4:27.74 |     36703    |    56801   
        4  | 12:37.27 |  3:28.28 |     56802    |    72429   
        5  | 16:05.55 |  4:09.10 |     72430    |    91114   
        6  | 20:14.65 |  5:05.12 |     91115    |   114001   
        7  | 25:20.02 |  4:42.02 |    114002    |   135153   
        8  | 30:02.04 |  4:16.10 |    135154    |   154363   
        9  | 34:18.14 |  5:07.55 |    154364    |   177443   
       10  | 39:25.69 |  5:17.50 |    177444    |   201268   
       11  | 44:43.44 |  7:00.26 |    201269    |   232794   
       12  | 51:43.70 |  4:15.31 |    232795    |   251950   
       13  | 55:59.26 |  3:53.04 |    251951    |   269429   
       14  | 59:52.30 |  4:57.32 |    269430    |   291736   
       15  | 64:49.62 |  4:18.65 |    291737    |   311151   
       16  | 69:08.52 |  5:06.10 |    311152    |   334111   
       17  | 74:14.62 |  3:29.22 |    334112    |   349808   

Range status and errors

Selected range

     Filename E:\хитрая папка\Новая папка (3)\Пикник - Пикник  - Лучшее CD2.wav

     Peak level 100.0 %
     Extraction speed 4.5 X
     Range quality 100.0 %
     Test CRC D36B1F84
     Copy CRC D36B1F84
     Copy OK

No errors occurred

 
AccurateRip summary
 
Track  1  not present in database
Track  2  not present in database
Track  3  not present in database
Track  4  not present in database
Track  5  not present in database
Track  6  not present in database
Track  7  not present in database
Track  8  not present in database
Track  9  not present in database
Track 10  not present in database
Track 11  not present in database
Track 12  not present in database
Track 13  not present in database
Track 14  not present in database
Track 15  not present in database
Track 16  not present in database
Track 17  not present in database
 
None of the tracks are present in the AccurateRip database

End of status report

==== Log checksum E7D5058CA44C271C96B093D1BE5CC76EEF93315E9D1202B0022BBFCC6B1215DE ====

Код:

REM GENRE "Rock"
REM DATE 2010
REM DISCID F5123811
REM COMMENT "ExactAudioCopy v1.0b3"
PERFORMER "Пикник"
TITLE "Лучшее"
FILE "Пикник - Лучшее.flac" WAVE
  TRACK 01 AUDIO
    TITLE "Кукла с человеческим лицом"
    PERFORMER "Пикник"
    FLAGS DCP
    INDEX 01 00:00:00
  TRACK 02 AUDIO
    TITLE "Недобитый романтик "
    PERFORMER "Пикник"
    FLAGS DCP
    INDEX 00 03:54:67
    INDEX 01 03:56:67
  TRACK 03 AUDIO
    TITLE "Из мышеловки"
    PERFORMER "Пикник"
    FLAGS DCP
    INDEX 00 08:07:28
    INDEX 01 08:09:28
  TRACK 04 AUDIO
    TITLE "У Шамана три руки"
    PERFORMER "Пикник"
    FLAGS DCP
    INDEX 00 12:35:27
    INDEX 01 12:37:27
  TRACK 05 AUDIO
    TITLE "Настоящие дни"
    PERFORMER "Пикник"
    FLAGS DCP
    INDEX 00 16:03:55
    INDEX 01 16:05:55
  TRACK 06 AUDIO
    TITLE "Фетиш"
    PERFORMER "Пикник"
    FLAGS DCP
    INDEX 00 20:12:65
    INDEX 01 20:14:65
  TRACK 07 AUDIO
    TITLE "Заратустра"
    PERFORMER "Пикник"
    FLAGS DCP
    INDEX 00 25:18:02
    INDEX 01 25:20:02
  TRACK 08 AUDIO
    TITLE "Твое сердце должно быть моим"
    PERFORMER "Пикник"
    FLAGS DCP
    INDEX 00 30:00:04
    INDEX 01 30:02:04
  TRACK 09 AUDIO
    TITLE "Шарманка"
    PERFORMER "Пикник"
    FLAGS DCP
    INDEX 00 34:16:14
    INDEX 01 34:18:14
  TRACK 10 AUDIO
    TITLE "До содома далеко"
    PERFORMER "Пикник"
    FLAGS DCP
    INDEX 00 39:23:69
    INDEX 01 39:25:69
  TRACK 11 AUDIO
    TITLE "Ночь"
    PERFORMER "Пикник"
    FLAGS DCP
    INDEX 00 44:41:44
    INDEX 01 44:43:44
  TRACK 12 AUDIO
    TITLE "Ни твое ни мое"
    PERFORMER "Пикник"
    FLAGS DCP
    INDEX 00 51:41:70
    INDEX 01 51:43:70
  TRACK 13 AUDIO
    TITLE "Смутные дни"
    PERFORMER "Пикник"
    FLAGS DCP
    INDEX 00 55:57:26
    INDEX 01 55:59:26
  TRACK 14 AUDIO
    TITLE "Телефон"
    PERFORMER "Пикник"
    FLAGS DCP
    INDEX 00 59:50:30
    INDEX 01 59:52:30
  TRACK 15 AUDIO
    TITLE "Я почти итальянец"
    PERFORMER "Пикник"
    FLAGS DCP
    INDEX 00 64:47:62
    INDEX 01 64:49:62
  TRACK 16 AUDIO
    TITLE "Себе не найдя двойников"
    PERFORMER "Пикник"
    FLAGS DCP
    INDEX 00 69:06:52
    INDEX 01 69:08:52
  TRACK 17 AUDIO
    TITLE "Немое кино"
    PERFORMER "Пикник"
    FLAGS DCP
    INDEX 00 74:12:62
    INDEX 01 74:14:62

Discogs

Этот торрент недоступен для скачивания без регистрации, однако доступен по публичной magnet-ссылке (источники с публичных трекеров). Перед использованием ссылки прочтите, пожалуйста Пользовательское соглашение, а также как можно дольше оставайтесь на раздаче! Для того, чтобы скачать сам торрент-файл (который видит больше источников), а также для того, чтобы поблагодарить релизера, вам необходимо зарегистрироваться. Если регистрироваться лень - вы можете также попробовать скачать релиз по нашим партнерским ссылкам ниже. Кроме того, зарегистрированным пользователям не показывается всплывающая реклама при скачивании.

[underverse.me].t96691.torrent
Трекер: Зарегистрирован   [ 16.02.2018 17:00 ]  

Статус: проверено (by Бишеп at 16.02.2018 17:00)
Поблагодарили: 3 человека
Тип торрента: публичный - доступные источники с открытых трекеров: 
Размер: 1 GB (занимает 0,23 DVDR, для записи нужно 1 болванка DVDR/RW)
 
 
Похожие темы
Форум Тема Автор Торрент Отв. Посл. сооб.
Зарубежная Pop Музыка (Alternative Pop, Neo Soul, Indie) Amanda Jenssen - Sanger fran on (2015) [MP3, 320 kbps] 90ytr90
2 | 0

0 | 1067

3

23.03.2015 19:02

Зарубежная Pop Музыка (Alternative, Indie) Anna of the North - Lovers (2017) [MP3, 320 kbps CBR] Darkferse
3 | 0

0 | 675

4

13.09.2017 08:47

Зарубежный Hard, Progressive, Soft, Melodic, AOR, Folk, Classic Rock (Alternative Rock / Progressive Rock) Muse - The 2nd Law (2012) [MP3, 320 kbps] Jimmy
1 | 0

0 | 1291

13

27.09.2012 04:30

Зарубежный Black, Death, Heavy, Thrash, Power, Folk, Gothic Metal (Alternative Metal) This Tragic Day - This Tragic Day (2012) [MP3, 320 kbps] NiiggazCPT
1 | 0

0 | 1482

4

28.10.2012 07:21

Зарубежный Punk, Hardcore, Grunge, Alternative (Alternative) The Killers - Discography (2004-2013) [iTunes AAC M4A, 256 kbps VBR] Web garry
11 | 9

0 | 5825

4

20.06.2009 12:07

Зарубежный Punk, Hardcore, Grunge, Alternative (Alternative, Pop-Punk, Female Vocal) We Are the In Crowd - Weird Kids [Deluxe Edition] (2014) [MP3, 320 kbps] Jimmy
3 | 0

0 | 1112

3

23.04.2014 15:58

Зарубежный Punk, Hardcore, Grunge, Alternative (Alternative, Pop Punk, Emo) Fireworks - (Oh), Common Life (2014) [MP3, 320 kbps] Jimmy
0 | 0

0 | 893

4

23.04.2014 15:55

Зарубежный Punk, Hardcore, Grunge, Alternative (Alternative/Progressive Rock) 30 Seconds To Mars - This Is War (Deluxe Version) (2010) [MP3, 320 kbps] puzzikat
1 | 0

0 | 1616

6

14.02.2011 18:04

Зарубежный Punk, Hardcore, Grunge, Alternative (Alternative Rock, Hard Rock) Goodbye June - Magic Valley (2017) [MP3, 320 kbps CBR] Darkferse
7 | 0

0 | 668

2

22.05.2017 19:04

Зарубежный Punk, Hardcore, Grunge, Alternative (Alternative Rock) The Cranberries - Roses (2012) [MP3, 320 kbps] Jimmy
3 | 1

1 | 1683

10

18.02.2012 17:22


Яндекс.Метрика powered by Sphinx


В Н И М А Н И Е
Сайт не распространяет и не хранит электронные версии произведений, а лишь бесплатно и без коммерческой выгоды (не требуя взамен платы,
SMS и т.д.) предоставляет доступ к создаваемому пользователями каталогу ссылок на торрент-файлы, которые содержат только списки хеш-сумм.
Убедительная просьба с жалобами обращаться напрямую к пользователю, разместившему торрент файл.

Вверх