Loading...
Error

(Punk Rock) Порнофильмы - Русская Мечта. Часть 2 (2016) [FLAC (Image+.Cue), Lossless]

Статистика раздачи
Размер:  362 MB   |    Зарегистрирован:  3 месяца 10 дней   |    Скачан:  3 раза

Полного источника не было: 1 месяц 29 дней

Сидов:  0  |  0 KB/s  ]   Личеров:  0  |  0 KB/s  ]

* - сиды/пиры с внешних источников

   
 
Автор Сообщение

Бишеп Пол:Муж

16-Фев-2018 09:10

Порнофильмы - Русская Мечта. Часть 2

Жанр: Punk Rock
Год выпуска: 2016
Источник: CD
Производитель диска: Soyuz Music - SZCD 6525-16
Аудиокодек: FLAC
Тип рипа: Image+.CUE
Битрейт аудио: lossless
Продолжительность: 00:32:55


Треклист:
01. Нищих Убивай!
02. Роди Мне 1000 Детей!
03. Не Доверяйте Правительству! (feat. Лёха Никонов)
04. Велосипед
05. Три
06. Папа, Не Пей!
07. Религиозный Фанатик
08. Песенка О Позабытых Министерством Доброты

Код:

Exact Audio Copy V1.1 from 23. June 2015

Отчёт EAC об извлечении, выполненном 28. мая 2016, 16:05

Порнофильмы / Русская Мечта. Часть 2

Дисковод: TSSTcorpCDDVDW SN-208BB   Adapter: 1  ID: 0

Режим чтения                 : Достоверность
Использование точного потока : Да
Отключение кэша аудио        : Да
Использование указателей C2  : Нет

Коррекция смещения при чтении                     : 6
Способность читать области Lead-in и Lead-out     : Нет
Заполнение пропущенных сэмплов тишиной            : Да
Удаление блоков с тишиной в начале и конце        : Нет
При вычислениях CRC использовались нулевые сэмплы : Да
Интерфейс                                         : Встроенный Win32-интерфейс для Win NT/2000

Выходной формат          : Пользовательский кодировщик
Выбранный битрейт        : 128 kBit/s
Качество                 : Высокий
Добавление ID3-тега      : Нет
Утилита сжатия           : C:\Program Files (x86)\Exact Audio Copy\Flac\flac.exe
Дополнительные параметры : -V -8 -T "Date=%year%" -T "Genre=%genre%" %source%

TOC извлечённого CD

     Трек |   Старт  | Длительность | Начальный сектор | Конечный сектор
    ---------------------------------------------------------------------
       1  |  0:00.00 |    4:21.15   |           0      |      19589     
       2  |  4:21.15 |    2:48.70   |       19590      |      32259     
       3  |  7:10.10 |    2:46.20   |       32260      |      44729     
       4  |  9:56.30 |    2:55.65   |       44730      |      57919     
       5  | 12:52.20 |    2:50.25   |       57920      |      70694     
       6  | 15:42.45 |    4:28.70   |       70695      |      90864     
       7  | 20:11.40 |    6:26.50   |       90865      |     119864     
       8  | 26:38.15 |    6:17.20   |      119865      |     148159     

Характеристики диапазона извлечения и сообщения об ошибках

Выбранный диапазон

     Имя файла C:\Users\1\Desktop\Порнофильмы - 2016 - Русская Мечта. Часть 2.wav

     Пиковый уровень 100.0 %
     Скорость извлечения 1.7 X
     Качество диапазона 100.0 %
     CRC теста 5800BC12
     CRC копии 5800BC12
     Копирование... OK

Ошибок не произошло

 
AccurateRip: сводка
 
Трек  1  отсутствует в базе данных
Трек  2  отсутствует в базе данных
Трек  3  отсутствует в базе данных
Трек  4  отсутствует в базе данных
Трек  5  отсутствует в базе данных
Трек  6  отсутствует в базе данных
Трек  7  отсутствует в базе данных
Трек  8  отсутствует в базе данных
 
Ни одного трека нет в базе AccurateRip

Конец отчёта

==== Контрольная сумма отчёта 1C76C6AAA654F8DD6CC6C9E3BE4B62B59F077D66AB611723CD9621C5B66B0D21 ====

Код:

REM DISCID 5D07B708
REM COMMENT "ExactAudioCopy v1.1"
PERFORMER "Порнофильмы"
TITLE "Русская Мечта. Часть 2"
FILE "Порнофильмы - 2016 - Русская Мечта. Часть 2.flac" WAVE
  TRACK 01 AUDIO
    TITLE "Нищих убивай!"
    PERFORMER "Порнофильмы"
    INDEX 01 00:00:00
  TRACK 02 AUDIO
    TITLE "Роди мне 1000 детей!"
    PERFORMER "Порнофильмы"
    INDEX 01 04:21:15
  TRACK 03 AUDIO
    TITLE "Не доверяйте правительству"
    PERFORMER "Порнофильмы"
    INDEX 01 07:10:10
  TRACK 04 AUDIO
    TITLE "Велосипед"
    PERFORMER "Порнофильмы"
    INDEX 01 09:56:30
  TRACK 05 AUDIO
    TITLE "Три"
    PERFORMER "Порнофильмы"
    INDEX 01 12:52:20
  TRACK 06 AUDIO
    TITLE "Папа, не пей!"
    PERFORMER "Порнофильмы"
    INDEX 01 15:42:45
  TRACK 07 AUDIO
    TITLE "Религиозный фанатик"
    PERFORMER "Порнофильмы"
    INDEX 01 20:11:40
  TRACK 08 AUDIO
    TITLE "Песенка о позабытых Министерством Доброты"
    PERFORMER "Порнофильмы"
    INDEX 01 26:38:15

Discogs

Этот торрент недоступен для скачивания без регистрации, однако доступен по публичной magnet-ссылке (источники с публичных трекеров). Перед использованием ссылки прочтите, пожалуйста Пользовательское соглашение, а также как можно дольше оставайтесь на раздаче! Для того, чтобы скачать сам торрент-файл (который видит больше источников), а также для того, чтобы поблагодарить релизера, вам необходимо зарегистрироваться. Если регистрироваться лень - вы можете также попробовать скачать релиз по нашим партнерским ссылкам ниже. Кроме того, зарегистрированным пользователям не показывается всплывающая реклама при скачивании.

[underverse.me].t96613.torrent
Трекер: Зарегистрирован   [ 16.02.2018 09:10 ]  

Статус: проверено (by Бишеп at 16.02.2018 09:10)
Поблагодарили: пока никто не поблагодарил...
Тип торрента: публичный - доступные источники с открытых трекеров: 
Размер: 362 MB (занимает 0,08 DVDR, для записи нужно 1 болванка DVDR/RW)
 
 
Похожие темы
Форум Тема Автор Торрент Отв. Посл. сооб.
Зарубежный Punk, Hardcore, Grunge, Alternative (Punk Rock/Street Punk) BRDigung - In Goldenen Ketten (2014) [MP3, 320 kbps] Jimmy
1 | 0

0 | 1008

4

23.04.2014 16:00

Зарубежный Punk, Hardcore, Grunge, Alternative (Punk Rock/Heavy Punk) Desakato - Buen Viaje (2014) [MP3, 320 kbps] Jimmy
1 | 0

0 | 743

5

23.04.2014 15:53

Зарубежный Punk, Hardcore, Grunge, Alternative (Punk Rock) Richie Ramone - Entitled [ex-Ramones] (2013) [MP3, 320 kbps] Jimmy
3 | 0

0 | 1976

2

21.12.2013 08:03

Зарубежный Punk, Hardcore, Grunge, Alternative (Punk Rock/Old School Pop Punk) The Bugs - 2 альбома (The Bugs/Missile To The Middle East) (2008/2013) [MP3, 320 kbps] Jimmy
1 | 0

0 | 2086

0

21.12.2013 08:06

Зарубежный Punk, Hardcore, Grunge, Alternative (Punk Rock) The So So Glos - Blowout (2013) [MP3, 320 kbps] Jimmy
1 | 0

0 | 1768

1

04.01.2014 10:17

Зарубежный Punk, Hardcore, Grunge, Alternative (Punk Rock | Melodic Hardcore) Noopinion - No Chains For Change (2013) [MP3, 320 kbps] Jimmy
1 | 0

0 | 1720

2

04.01.2014 14:20

Зарубежный Punk, Hardcore, Grunge, Alternative (Punk Rock) Stiff Little Fingers - No Going Back (2014) [MP3, 320 kbps] Jimmy
1 | 5

0 | 1691

5

23.03.2014 05:20

Зарубежный Punk, Hardcore, Grunge, Alternative (Punk Rock, Skate Punk, Melodic Punk) Authority Zero - Broadcasting To The Nations (2017) [MP3, 320 kbps CBR] Darkferse
7 | 0

0 | 742

2

02.06.2017 15:14

Зарубежный Punk, Hardcore, Grunge, Alternative (Punk Rock, Reggae) Anti-Nowhere League - League Style (Loosen Up Volume 1) (2017) [MP3, 320 kbps CBR] Darkferse
3 | 0

0 | 378

1

05.06.2017 23:58

Зарубежный Punk, Hardcore, Grunge, Alternative (Punk Rock) Beatsteaks - YOURS (2017) [MP3, 320 kbps CBR] Darkferse
6 | 1

0 | 441

1

06.09.2017 10:18


Яндекс.Метрика powered by Sphinx


В Н И М А Н И Е
Сайт не распространяет и не хранит электронные версии произведений, а лишь бесплатно и без коммерческой выгоды (не требуя взамен платы,
SMS и т.д.) предоставляет доступ к создаваемому пользователями каталогу ссылок на торрент-файлы, которые содержат только списки хеш-сумм.
Убедительная просьба с жалобами обращаться напрямую к пользователю, разместившему торрент файл.

Вверх