Loading...
Error

(Punk Rock) Порнофильмы - Русская Мечта. Часть 1 (2015) [FLAC (Image+.Cue), Lossless]

Статистика раздачи
Размер:  344 MB   |    Зарегистрирован:  3 месяца 11 дней   |    Скачан:  4 раза

Полного источника не было: 1 месяц 19 дней

Сидов:  0  |  0 KB/s  ]   Личеров:  0  |  0 KB/s  ]

* - сиды/пиры с внешних источников

   
 
Автор Сообщение

Бишеп Пол:Муж

16-Фев-2018 08:30

Порнофильмы - Русская Мечта. Часть 1

Жанр: Punk Rock
Год выпуска: 2015
Источник: CD
Производитель диска: Soyuz Music ‎– SZCD 6218-15
Аудиокодек: FLAC
Тип рипа: Image+.CUE
Битрейт аудио: lossless
Продолжительность: 00:26:46


Треклист:
01. Приезжай!
02. Корпоративный Этикет
03. Молодая Семья
04. Песня Про Любовь Для Рабочего Района
05. Русская Мечта
06. Кто Все Эти Люди?
07. Пьяный Контракт
08. Молодёжный Бунт

Код:

Exact Audio Copy V1.1 from 23. June 2015

Отчёт EAC об извлечении, выполненном 19. декабря 2015, 13:56

Порнофильмы / Русская Мечта. Часть I

Дисковод: TSSTcorpCDDVDW SN-208BB   Adapter: 1  ID: 0

Режим чтения                 : Достоверность
Использование точного потока : Да
Отключение кэша аудио        : Да
Использование указателей C2  : Нет

Коррекция смещения при чтении                     : 6
Способность читать области Lead-in и Lead-out     : Нет
Заполнение пропущенных сэмплов тишиной            : Да
Удаление блоков с тишиной в начале и конце        : Нет
При вычислениях CRC использовались нулевые сэмплы : Да
Интерфейс                                         : Встроенный Win32-интерфейс для Win NT/2000

Выходной формат          : Пользовательский кодировщик
Выбранный битрейт        : 128 kBit/s
Качество                 : Высокий
Добавление ID3-тега      : Нет
Утилита сжатия           : C:\Program Files (x86)\Exact Audio Copy\Flac\flac.exe
Дополнительные параметры : -V -8 -T "Date=%year%" -T "Genre=%genre%" %source%

TOC извлечённого CD

     Трек |   Старт  | Длительность | Начальный сектор | Конечный сектор
    ---------------------------------------------------------------------
       1  |  0:00.00 |    4:18.47   |           0      |      19396     
       2  |  4:18.47 |    2:25.25   |       19397      |      30296     
       3  |  6:43.72 |    3:49.70   |       30297      |      47541     
       4  | 10:33.67 |    4:01.37   |       47542      |      65653     
       5  | 14:35.29 |    2:21.70   |       65654      |      76298     
       6  | 16:57.24 |    3:30.72   |       76299      |      92120     
       7  | 20:28.21 |    1:29.30   |       92121      |      98825     
       8  | 21:57.51 |    4:48.25   |       98826      |     120450     

Характеристики диапазона извлечения и сообщения об ошибках

Выбранный диапазон

     Имя файла C:\Users\1\Desktop\Порнофильмы - 2015 - Русская Мечта. Часть I.wav

     Пиковый уровень 100.0 %
     Скорость извлечения 1.6 X
     Качество диапазона 100.0 %
     CRC теста 40048C2B
     CRC копии 40048C2B
     Копирование... OK

Ошибок не произошло

 
AccurateRip: сводка
 
Трек  1  отсутствует в базе данных
Трек  2  отсутствует в базе данных
Трек  3  отсутствует в базе данных
Трек  4  отсутствует в базе данных
Трек  5  отсутствует в базе данных
Трек  6  отсутствует в базе данных
Трек  7  отсутствует в базе данных
Трек  8  отсутствует в базе данных
 
Ни одного трека нет в базе AccurateRip

Конец отчёта

==== Контрольная сумма отчёта D65328532EAEA3837FDC2E9F7BB1718C7E343372810046CAB900C6FC11C674BB ====

Код:

REM DISCID 56064608
REM COMMENT "ExactAudioCopy v1.1"
PERFORMER "Порнофильмы"
TITLE "Русская Мечта. Часть 1"
FILE "Порнофильмы - 2015 - Русская Мечта. Часть 1.flac" WAVE
  TRACK 01 AUDIO
    TITLE "Приезжай"
    PERFORMER "Порнофильмы"
    INDEX 01 00:00:00
  TRACK 02 AUDIO
    TITLE "Корпоративный Этикет"
    PERFORMER "Порнофильмы"
    INDEX 01 04:18:47
  TRACK 03 AUDIO
    TITLE "Молодая Семья"
    PERFORMER "Порнофильмы"
    INDEX 01 06:43:72
  TRACK 04 AUDIO
    TITLE "Песня Про Любовь Для Рабочего Района"
    PERFORMER "Порнофильмы"
    INDEX 01 10:33:67
  TRACK 05 AUDIO
    TITLE "Русская Мечта"
    PERFORMER "Порнофильмы"
    INDEX 01 14:35:29
  TRACK 06 AUDIO
    TITLE "Кто Все Эти Люди?"
    PERFORMER "Порнофильмы"
    INDEX 01 16:57:24
  TRACK 07 AUDIO
    TITLE "Пьяный Контракт"
    PERFORMER "Порнофильмы"
    INDEX 01 20:28:21
  TRACK 08 AUDIO
    TITLE "Молодёжный Бунт"
    PERFORMER "Порнофильмы"
    INDEX 01 21:57:51

Discogs

Этот торрент недоступен для скачивания без регистрации, однако доступен по публичной magnet-ссылке (источники с публичных трекеров). Перед использованием ссылки прочтите, пожалуйста Пользовательское соглашение, а также как можно дольше оставайтесь на раздаче! Для того, чтобы скачать сам торрент-файл (который видит больше источников), а также для того, чтобы поблагодарить релизера, вам необходимо зарегистрироваться. Если регистрироваться лень - вы можете также попробовать скачать релиз по нашим партнерским ссылкам ниже. Кроме того, зарегистрированным пользователям не показывается всплывающая реклама при скачивании.

[underverse.me].t96607.torrent
Трекер: Зарегистрирован   [ 16.02.2018 08:30 ]  

Статус: проверено (by Бишеп at 16.02.2018 08:30)
Поблагодарили: пока никто не поблагодарил...
Тип торрента: публичный - доступные источники с открытых трекеров: 
Размер: 344 MB (занимает 0,08 DVDR, для записи нужно 1 болванка DVDR/RW)
 
 
Похожие темы
Форум Тема Автор Торрент Отв. Посл. сооб.
Зарубежный Punk, Hardcore, Grunge, Alternative (Punk Rock/Street Punk) BRDigung - In Goldenen Ketten (2014) [MP3, 320 kbps] Jimmy
1 | 0

0 | 1010

4

23.04.2014 16:00

Зарубежный Punk, Hardcore, Grunge, Alternative (Punk Rock/Heavy Punk) Desakato - Buen Viaje (2014) [MP3, 320 kbps] Jimmy
1 | 0

0 | 746

5

23.04.2014 15:53

Зарубежный Punk, Hardcore, Grunge, Alternative (Punk Rock) Richie Ramone - Entitled [ex-Ramones] (2013) [MP3, 320 kbps] Jimmy
3 | 0

0 | 1977

2

21.12.2013 08:03

Зарубежный Punk, Hardcore, Grunge, Alternative (Punk Rock/Old School Pop Punk) The Bugs - 2 альбома (The Bugs/Missile To The Middle East) (2008/2013) [MP3, 320 kbps] Jimmy
1 | 0

0 | 2086

0

21.12.2013 08:06

Зарубежный Punk, Hardcore, Grunge, Alternative (Punk Rock) The So So Glos - Blowout (2013) [MP3, 320 kbps] Jimmy
1 | 0

0 | 1768

1

04.01.2014 10:17

Зарубежный Punk, Hardcore, Grunge, Alternative (Punk Rock | Melodic Hardcore) Noopinion - No Chains For Change (2013) [MP3, 320 kbps] Jimmy
1 | 0

0 | 1720

2

04.01.2014 14:20

Зарубежный Punk, Hardcore, Grunge, Alternative (Punk Rock) Stiff Little Fingers - No Going Back (2014) [MP3, 320 kbps] Jimmy
1 | 5

0 | 1691

5

23.03.2014 05:20

Зарубежный Punk, Hardcore, Grunge, Alternative (Punk Rock, Skate Punk, Melodic Punk) Authority Zero - Broadcasting To The Nations (2017) [MP3, 320 kbps CBR] Darkferse
6 | 0

0 | 745

2

02.06.2017 15:14

Зарубежный Punk, Hardcore, Grunge, Alternative (Punk Rock, Reggae) Anti-Nowhere League - League Style (Loosen Up Volume 1) (2017) [MP3, 320 kbps CBR] Darkferse
3 | 0

0 | 378

1

05.06.2017 23:58

Зарубежный Punk, Hardcore, Grunge, Alternative (Punk Rock) Beatsteaks - YOURS (2017) [MP3, 320 kbps CBR] Darkferse
6 | 1

0 | 441

1

06.09.2017 10:18


Яндекс.Метрика powered by Sphinx


В Н И М А Н И Е
Сайт не распространяет и не хранит электронные версии произведений, а лишь бесплатно и без коммерческой выгоды (не требуя взамен платы,
SMS и т.д.) предоставляет доступ к создаваемому пользователями каталогу ссылок на торрент-файлы, которые содержат только списки хеш-сумм.
Убедительная просьба с жалобами обращаться напрямую к пользователю, разместившему торрент файл.

Вверх