Loading...
Error

(Alternative Rock) Алиса - Шабаш (2016) [FLAC (Image+.Cue), Lossless]

Статистика раздачи
Размер:  526 MB   |    Зарегистрирован:  3 месяца 10 дней   |    Скачан:  4 раза

Полного источника не было: 24 дня

Сидов:  0  |  0 KB/s  ]   Личеров:  0  |  0 KB/s  ]

* - сиды/пиры с внешних источников

   
 
Автор Сообщение

Бишеп Пол:Муж

16-Фев-2018 06:24

Алиса - Шабаш

Жанр: Alternative Rock
Год выпуска: 2016
Источник: CD
Производитель диска: Мистерия Звука - CD-M+407-2
Аудиокодек: FLAC
Тип рипа: Image+.CUE
Битрейт аудио: lossless
Продолжительность: 01:18:29


Треклист:
01. Шабаш (8:10)
02. Жар бог Шуга (5:24)
03. Бес паники (4:36)
04. Лодка (6:23)
05. Мое поколение (4:00)
06. Ко мне (4:47)
07. Стерх (5:45)
08. Ветер водит хоровод (7:12)
09. Чую гибель (4:58)
10. Красное на черном (4:29)
11. Все это рок-н-ролл (4:29)
12. Сумерки (4:07)
13. Шабаш 2 (4:57)
14. Новая кровь (5:32)
15. Все в наших руках (3:38)

Код:

Exact Audio Copy V1.0 beta 3 from 29. August 2011

Отчёт EAC об извлечении, выполненном 18. мая 2016, 14:38

Алиса / Шабаш

Дисковод: PIONEER DVD-RW  DVR-218L   Adapter: 0  ID: 0

Режим чтения                 : Достоверность
Использование точного потока : Да
Отключение кэша аудио        : Да
Использование указателей C2  : Нет

Коррекция смещения при чтении                     : 6
Способность читать области Lead-in и Lead-out     : Нет
Заполнение пропущенных сэмплов тишиной            : Да
Удаление блоков с тишиной в начале и конце        : Нет
При вычислениях CRC использовались нулевые сэмплы : Да
Интерфейс                                         : Встроенный Win32-интерфейс для Win NT/2000

Выходной формат          : Пользовательский кодировщик
Выбранный битрейт        : 128 kBit/s
Качество                 : Высокий
Добавление ID3-тега      : Нет
Утилита сжатия           : C:\Program Files (x86)\Exact Audio Copy\Flac\flac.exe
Дополнительные параметры : -V -7 -T "Genre=%genre%" -T "Artist=%artist%" -T "Title=%title%" -T "Album=%albumtitle%" -T "Date=%year%" -T "Tracknumber=%tracknr%" -T "Comment=%comment%" %source%

TOC извлечённого CD

     Трек |   Старт  | Длительность | Начальный сектор | Конечный сектор
    ---------------------------------------------------------------------
       1  |  0:00.00 |    8:09.72   |           0      |      36746     
       2  |  8:09.72 |    5:24.22   |       36747      |      61068     
       3  | 13:34.19 |    4:35.43   |       61069      |      81736     
       4  | 18:09.62 |    6:23.35   |       81737      |     110496     
       5  | 24:33.22 |    4:00.37   |      110497      |     128533     
       6  | 28:33.59 |    4:46.68   |      128534      |     150051     
       7  | 33:20.52 |    5:44.57   |      150052      |     175908     
       8  | 39:05.34 |    7:12.25   |      175909      |     208333     
       9  | 46:17.59 |    4:57.65   |      208334      |     230673     
      10  | 51:15.49 |    4:29.33   |      230674      |     250881     
      11  | 55:45.07 |    4:29.35   |      250882      |     271091     
      12  | 60:14.42 |    4:06.60   |      271092      |     289601     
      13  | 64:21.27 |    4:57.00   |      289602      |     311876     
      14  | 69:18.27 |    5:32.17   |      311877      |     336793     
      15  | 74:50.44 |    3:38.20   |      336794      |     353163     

Характеристики диапазона извлечения и сообщения об ошибках

Выбранный диапазон

     Имя файла E:\_VIDEO\_seriaЛЫ_\!!!muz\Алиса - Шабаш (1991) [2016, Мистерия звука, CD-M+407-2]\Алиса - Шабаш (1991).wav

     Пиковый уровень 94.0 %
     Скорость извлечения 2.2 X
     Качество диапазона 100.0 %
     CRC теста 26EF038F
     CRC копии 26EF038F
     Копирование... OK

Ошибок не произошло

 
AccurateRip: сводка
 
Трек  1  отсутствует в базе данных
Трек  2  отсутствует в базе данных
Трек  3  отсутствует в базе данных
Трек  4  отсутствует в базе данных
Трек  5  отсутствует в базе данных
Трек  6  отсутствует в базе данных
Трек  7  отсутствует в базе данных
Трек  8  отсутствует в базе данных
Трек  9  отсутствует в базе данных
Трек 10  отсутствует в базе данных
Трек 11  отсутствует в базе данных
Трек 12  отсутствует в базе данных
Трек 13  отсутствует в базе данных
Трек 14  отсутствует в базе данных
Трек 15  отсутствует в базе данных
 
Ни одного трека нет в базе AccurateRip

Конец отчёта

==== Контрольная сумма отчёта 732861E954CBA3FBE1009CFD10425113A1A900A31596F4748A4EB457A5B4509F ====

Код:

REM GENRE Rock
REM DATE 1991
REM DISCID DA12640F
REM COMMENT "ExactAudioCopy v1.0b3"
PERFORMER "Алиса"
TITLE "Шабаш"
FILE "Алиса - Шабаш (1991).flac" WAVE
  TRACK 01 AUDIO
    TITLE "Шабаш"
    PERFORMER "Алиса"
    INDEX 01 00:00:00
  TRACK 02 AUDIO
    TITLE "Жар бог Шуга"
    PERFORMER "Алиса"
    INDEX 01 08:09:72
  TRACK 03 AUDIO
    TITLE "Бес паники"
    PERFORMER "Алиса"
    INDEX 01 13:34:19
  TRACK 04 AUDIO
    TITLE "Лодка"
    PERFORMER "Алиса"
    INDEX 01 18:09:62
  TRACK 05 AUDIO
    TITLE "Мое поколение"
    PERFORMER "Алиса"
    INDEX 01 24:33:22
  TRACK 06 AUDIO
    TITLE "Ко мне"
    PERFORMER "Алиса"
    INDEX 01 28:33:59
  TRACK 07 AUDIO
    TITLE "Стерх"
    PERFORMER "Алиса"
    INDEX 01 33:20:52
  TRACK 08 AUDIO
    TITLE "Ветер водит хоровод"
    PERFORMER "Алиса"
    INDEX 01 39:05:34
  TRACK 09 AUDIO
    TITLE "Чую гибель"
    PERFORMER "Алиса"
    INDEX 01 46:17:59
  TRACK 10 AUDIO
    TITLE "Красное на черном"
    PERFORMER "Алиса"
    INDEX 01 51:15:49
  TRACK 11 AUDIO
    TITLE "Все это рок-н-ролл"
    PERFORMER "Алиса"
    INDEX 01 55:45:07
  TRACK 12 AUDIO
    TITLE "Сумерки"
    PERFORMER "Алиса"
    INDEX 01 60:14:42
  TRACK 13 AUDIO
    TITLE "Шабаш 2"
    PERFORMER "Алиса"
    INDEX 01 64:21:27
  TRACK 14 AUDIO
    TITLE "Новая кровь"
    PERFORMER "Алиса"
    INDEX 01 69:18:27
  TRACK 15 AUDIO
    TITLE "Все в наших руках"
    PERFORMER "Алиса"
    INDEX 01 74:50:44

Discogs

Этот торрент недоступен для скачивания без регистрации, однако доступен по публичной magnet-ссылке (источники с публичных трекеров). Перед использованием ссылки прочтите, пожалуйста Пользовательское соглашение, а также как можно дольше оставайтесь на раздаче! Для того, чтобы скачать сам торрент-файл (который видит больше источников), а также для того, чтобы поблагодарить релизера, вам необходимо зарегистрироваться. Если регистрироваться лень - вы можете также попробовать скачать релиз по нашим партнерским ссылкам ниже. Кроме того, зарегистрированным пользователям не показывается всплывающая реклама при скачивании.

[underverse.me].t96581.torrent
Трекер: Зарегистрирован   [ 16.02.2018 06:24 ]  

Статус: проверено (by Бишеп at 16.02.2018 06:24)
Поблагодарили: пока никто не поблагодарил...
Тип торрента: публичный - доступные источники с открытых трекеров: 
Размер: 526 MB (занимает 0,12 DVDR, для записи нужно 1 болванка DVDR/RW)
 
 
Похожие темы
Форум Тема Автор Торрент Отв. Посл. сооб.
Зарубежная Pop Музыка (Alternative Pop, Neo Soul, Indie) Amanda Jenssen - Sanger fran on (2015) [MP3, 320 kbps] 90ytr90
2 | 0

0 | 1064

3

23.03.2015 19:02

Зарубежная Pop Музыка (Alternative, Indie) Anna of the North - Lovers (2017) [MP3, 320 kbps CBR] Darkferse
3 | 0

0 | 673

4

13.09.2017 08:47

Зарубежный Hard, Progressive, Soft, Melodic, AOR, Folk, Classic Rock (Alternative Rock / Progressive Rock) Muse - The 2nd Law (2012) [MP3, 320 kbps] Jimmy
1 | 0

0 | 1287

13

27.09.2012 04:30

Зарубежный Black, Death, Heavy, Thrash, Power, Folk, Gothic Metal (Alternative Metal) This Tragic Day - This Tragic Day (2012) [MP3, 320 kbps] NiiggazCPT
1 | 0

0 | 1479

4

28.10.2012 07:21

Зарубежный Punk, Hardcore, Grunge, Alternative (Alternative) The Killers - Discography (2004-2013) [iTunes AAC M4A, 256 kbps VBR] Web garry
14 | 14

0 | 5814

3

20.06.2009 12:07

Зарубежный Punk, Hardcore, Grunge, Alternative (Alternative, Pop-Punk, Female Vocal) We Are the In Crowd - Weird Kids [Deluxe Edition] (2014) [MP3, 320 kbps] Jimmy
3 | 0

0 | 1111

3

23.04.2014 15:58

Зарубежный Punk, Hardcore, Grunge, Alternative (Alternative, Pop Punk, Emo) Fireworks - (Oh), Common Life (2014) [MP3, 320 kbps] Jimmy
0 | 0

0 | 890

4

23.04.2014 15:55

Зарубежный Punk, Hardcore, Grunge, Alternative (Alternative/Progressive Rock) 30 Seconds To Mars - This Is War (Deluxe Version) (2010) [MP3, 320 kbps] puzzikat
1 | 0

0 | 1615

6

14.02.2011 18:04

Зарубежный Punk, Hardcore, Grunge, Alternative (Alternative Rock, Hard Rock) Goodbye June - Magic Valley (2017) [MP3, 320 kbps CBR] Darkferse
7 | 0

0 | 668

2

22.05.2017 19:04

Зарубежный Punk, Hardcore, Grunge, Alternative (Alternative Rock) The Cranberries - Roses (2012) [MP3, 320 kbps] Jimmy
3 | 1

1 | 1679

10

18.02.2012 17:22


Яндекс.Метрика powered by Sphinx


В Н И М А Н И Е
Сайт не распространяет и не хранит электронные версии произведений, а лишь бесплатно и без коммерческой выгоды (не требуя взамен платы,
SMS и т.д.) предоставляет доступ к создаваемому пользователями каталогу ссылок на торрент-файлы, которые содержат только списки хеш-сумм.
Убедительная просьба с жалобами обращаться напрямую к пользователю, разместившему торрент файл.

Вверх