Loading...
Error

(Contemporary Jazz) Madeleine Peyroux - The Blue Room (2013) [FLAC (Tracks+.Cue), Lossless]

Статистика раздачи
Размер:  479 MB   |    Зарегистрирован:  3 месяца 10 дней   |    Скачан:  4 раза

Полного источника не было: 3 дня

Сидов:  0  |  0 KB/s  ]   Личеров:  0  |  0 KB/s  ]

* - сиды/пиры с внешних источников

   
 
Автор Сообщение

Бишеп Пол:Муж

16-Фев-2018 05:59

Madeleine Peyroux - The Blue Room

Жанр: Contemporary Jazz
Год выпуска: 2013
Источник: CD
Производитель диска: Decca/Emarcy - 3724270
Аудиокодек: FLAC
Тип рипа: Tracks+.CUE
Битрейт аудио: lossless
Продолжительность: 00:47:37


Треклист:
01. Take These Chains From My Heart (3:13)
02. Bye Bye Love (3:28)
03. Canging All Those Changes (3:10)
04. Born To Lose (4:28)
05. Guilty (3:51)
06. Bird On A Wire (5:37)
07. I Can't Stop Loving You (4:18)
08. Gentle On My Mind (6:42)
09. You Don't Know Me (4:02)
10. Desperadoes Under The Eaves (extended version) (5:26)
11. I Love You 'So Much It Hurts (bonus track) (3:22)

Код:

Exact Audio Copy V1.0 beta 3 from 29. August 2011

Отчёт EAC об извлечении, выполненном 16. мая 2014, 10:27

Madeleine Peyroux / The Blue Room [limited edition]

Дисковод: PIONEER DVD-RW  DVR-218L   Adapter: 0  ID: 0

Режим чтения                 : Достоверность
Использование точного потока : Да
Отключение кэша аудио        : Да
Использование указателей C2  : Нет

Коррекция смещения при чтении                     : 6
Способность читать области Lead-in и Lead-out     : Нет
Заполнение пропущенных сэмплов тишиной            : Да
Удаление блоков с тишиной в начале и конце        : Нет
При вычислениях CRC использовались нулевые сэмплы : Да
Интерфейс                                         : Встроенный Win32-интерфейс для Win NT/2000
Обработка зазоров                                 : Добавлено к предыдущему треку

Выходной формат          : Пользовательский кодировщик
Выбранный битрейт        : 128 kBit/s
Качество                 : Высокий
Добавление ID3-тега      : Нет
Утилита сжатия           : C:\Program Files (x86)\Exact Audio Copy\Flac\flac.exe
Дополнительные параметры : -V -7 -T "Genre=%genre%" -T "Artist=%artist%" -T "Title=%title%" -T "Album=%albumtitle%" -T "Date=%year%" -T "Tracknumber=%tracknr%" -T "Comment=%comment%" %source%

TOC извлечённого CD

     Трек |   Старт  | Длительность | Начальный сектор | Конечный сектор
    ---------------------------------------------------------------------
       1  |  0:00.00 |    3:12.44   |           0      |      14443     
       2  |  3:12.44 |    3:28.22   |       14444      |      30065     
       3  |  6:40.66 |    3:10.36   |       30066      |      44351     
       4  |  9:51.27 |    4:27.39   |       44352      |      64415     
       5  | 14:18.66 |    3:50.67   |       64416      |      81732     
       6  | 18:09.58 |    5:36.72   |       81733      |     107004     
       7  | 23:46.55 |    4:18.34   |      107005      |     126388     
       8  | 28:05.14 |    6:41.73   |      126389      |     156536     
       9  | 34:47.12 |    4:01.56   |      156537      |     174667     
      10  | 38:48.68 |    5:26.11   |      174668      |     199128     
      11  | 44:15.04 |    3:21.39   |      199129      |     214242     

Трек  1

     Имя файла E:\_VIDEO\_seriaЛЫ_\!!!muz\Madeleine Peyroux - The Blue Room [limited edition] (2013)\01 Take These Chains From My Heart.wav

     Длина предзазора  0:00:02.00

     Пиковый уровень 100.0 %
     Скорость извлечения 1.0 X
     Качество трека 100.0 %
     CRC теста 2C91EC6E
     CRC копии 2C91EC6E
     Точное извлечение (достоверность 21)  [F6495F8E]  (AR v2)
     Копирование... OK

Трек  2

     Имя файла E:\_VIDEO\_seriaЛЫ_\!!!muz\Madeleine Peyroux - The Blue Room [limited edition] (2013)\02 Bye Bye Love.wav

     Длина предзазора  0:00:01.50

     Пиковый уровень 100.0 %
     Скорость извлечения 1.1 X
     Качество трека 100.0 %
     CRC теста 6BDE035C
     CRC копии 6BDE035C
     Точное извлечение (достоверность 21)  [FC16AEAE]  (AR v2)
     Копирование... OK

Трек  3

     Имя файла E:\_VIDEO\_seriaЛЫ_\!!!muz\Madeleine Peyroux - The Blue Room [limited edition] (2013)\03 Canging All Those Changes.wav

     Длина предзазора  0:00:01.30

     Пиковый уровень 100.0 %
     Скорость извлечения 1.2 X
     Качество трека 100.0 %
     CRC теста 7067B397
     CRC копии 7067B397
     Точное извлечение (достоверность 22)  [60D1FFE2]  (AR v2)
     Копирование... OK

Трек  4

     Имя файла E:\_VIDEO\_seriaЛЫ_\!!!muz\Madeleine Peyroux - The Blue Room [limited edition] (2013)\04 Born To Lose.wav

     Длина предзазора  0:00:01.20

     Пиковый уровень 100.0 %
     Скорость извлечения 1.4 X
     Качество трека 100.0 %
     CRC теста 8BA6567E
     CRC копии 8BA6567E
     Точное извлечение (достоверность 21)  [1C73828E]  (AR v2)
     Копирование... OK

Трек  5

     Имя файла E:\_VIDEO\_seriaЛЫ_\!!!muz\Madeleine Peyroux - The Blue Room [limited edition] (2013)\05 Guilty.wav

     Длина предзазора  0:00:01.40

     Пиковый уровень 100.0 %
     Скорость извлечения 1.5 X
     Качество трека 100.0 %
     CRC теста AB673623
     CRC копии AB673623
     Точное извлечение (достоверность 21)  [A0F32A14]  (AR v2)
     Копирование... OK

Трек  6

     Имя файла E:\_VIDEO\_seriaЛЫ_\!!!muz\Madeleine Peyroux - The Blue Room [limited edition] (2013)\06 Bird On A Wire.wav

     Пиковый уровень 100.0 %
     Скорость извлечения 1.5 X
     Качество трека 99.9 %
     CRC теста B784D080
     CRC копии B784D080
     Точное извлечение (достоверность 21)  [0FD9CF9C]  (AR v2)
     Копирование... OK

Трек  7

     Имя файла E:\_VIDEO\_seriaЛЫ_\!!!muz\Madeleine Peyroux - The Blue Room [limited edition] (2013)\07 I Can't Stop Loving You.wav

     Длина предзазора  0:00:00.50

     Пиковый уровень 100.0 %
     Скорость извлечения 1.7 X
     Качество трека 100.0 %
     CRC теста B7EAD888
     CRC копии B7EAD888
     Точное извлечение (достоверность 21)  [0341B373]  (AR v2)
     Копирование... OK

Трек  8

     Имя файла E:\_VIDEO\_seriaЛЫ_\!!!muz\Madeleine Peyroux - The Blue Room [limited edition] (2013)\08 Gentle On My Mind.wav

     Длина предзазора  0:00:01.09

     Пиковый уровень 99.3 %
     Скорость извлечения 1.9 X
     Качество трека 100.0 %
     CRC теста 4F2DA8A4
     CRC копии 4F2DA8A4
     Точное извлечение (достоверность 21)  [C8468AC1]  (AR v2)
     Копирование... OK

Трек  9

     Имя файла E:\_VIDEO\_seriaЛЫ_\!!!muz\Madeleine Peyroux - The Blue Room [limited edition] (2013)\09 You Don't Know Me.wav

     Длина предзазора  0:00:01.39

     Пиковый уровень 100.0 %
     Скорость извлечения 1.9 X
     Качество трека 100.0 %
     CRC теста ED11C68B
     CRC копии ED11C68B
     Точное извлечение (достоверность 21)  [75B0D939]  (AR v2)
     Копирование... OK

Трек 10

     Имя файла E:\_VIDEO\_seriaЛЫ_\!!!muz\Madeleine Peyroux - The Blue Room [limited edition] (2013)\10 Desperadoes Under The Eaves (extended version).wav

     Длина предзазора  0:00:02.10

     Пиковый уровень 100.0 %
     Скорость извлечения 2.0 X
     Качество трека 100.0 %
     CRC теста 9C5C697F
     CRC копии 9C5C697F
     Точное извлечение (достоверность 21)  [0D480EB2]  (AR v2)
     Копирование... OK

Трек 11

     Имя файла E:\_VIDEO\_seriaЛЫ_\!!!muz\Madeleine Peyroux - The Blue Room [limited edition] (2013)\11 I Love You 'So Much It Hurts (bonus track).wav

     Длина предзазора  0:00:06.11

     Пиковый уровень 100.0 %
     Скорость извлечения 1.7 X
     Качество трека 99.9 %
     CRC теста 9AFAF0FE
     CRC копии 9AFAF0FE
     Точное извлечение (достоверность 21)  [C5563800]  (AR v2)
     Копирование... OK

Все треки извлечены точно

Ошибок не произошло

Конец отчёта

==== Контрольная сумма отчёта C9D61D10B441AB198CE9EB42AF78918468950955380151C568F4B9F302327181 ====

Код:

REM GENRE Jazz
REM DATE 2013
REM DISCID 940B280B
REM COMMENT "ExactAudioCopy v1.0b3"
PERFORMER "Madeleine Peyroux"
TITLE "The Blue Room - Limited Edtion"
FILE "01 Take These Chains From My Heart.wav" WAVE
  TRACK 01 AUDIO
    TITLE "Take These Chains From My Heart"
    PERFORMER "Madeleine Peyroux"
    INDEX 01 00:00:00
  TRACK 02 AUDIO
    TITLE "Bye Bye Love"
    PERFORMER "Madeleine Peyroux"
    INDEX 00 03:10:69
FILE "02 Bye Bye Love.wav" WAVE
    INDEX 01 00:00:00
  TRACK 03 AUDIO
    TITLE "Canging All Those Changes"
    PERFORMER "Madeleine Peyroux"
    INDEX 00 03:26:67
FILE "03 Canging All Those Changes.wav" WAVE
    INDEX 01 00:00:00
  TRACK 04 AUDIO
    TITLE "Born To Lose"
    PERFORMER "Madeleine Peyroux"
    INDEX 00 03:09:16
FILE "04 Born To Lose.wav" WAVE
    INDEX 01 00:00:00
  TRACK 05 AUDIO
    TITLE "Guilty"
    PERFORMER "Madeleine Peyroux"
    INDEX 00 04:25:74
FILE "05 Guilty.wav" WAVE
    INDEX 01 00:00:00
FILE "06 Bird On A Wire.wav" WAVE
  TRACK 06 AUDIO
    TITLE "Bird On A Wire"
    PERFORMER "Madeleine Peyroux"
    INDEX 01 00:00:00
  TRACK 07 AUDIO
    TITLE "I Can't Stop Loving You"
    PERFORMER "Madeleine Peyroux"
    INDEX 00 05:36:22
FILE "07 I Can't Stop Loving You.wav" WAVE
    INDEX 01 00:00:00
  TRACK 08 AUDIO
    TITLE "Gentle On My Mind"
    PERFORMER "Madeleine Peyroux"
    INDEX 00 04:17:25
FILE "08 Gentle On My Mind.wav" WAVE
    INDEX 01 00:00:00
  TRACK 09 AUDIO
    TITLE "You Don't Know Me"
    PERFORMER "Madeleine Peyroux"
    INDEX 00 06:40:34
FILE "09 You Don't Know Me.wav" WAVE
    INDEX 01 00:00:00
  TRACK 10 AUDIO
    TITLE "Desperadoes Under The Eaves (extended version)"
    PERFORMER "Madeleine Peyroux"
    INDEX 00 03:59:46
FILE "10 Desperadoes Under The Eaves (extended version).wav" WAVE
    INDEX 01 00:00:00
  TRACK 11 AUDIO
    TITLE "I Love You 'So Much It Hurts (bonus track)"
    PERFORMER "Madeleine Peyroux"
    INDEX 00 05:20:00
FILE "11 I Love You 'So Much It Hurts (bonus track).wav" WAVE
    INDEX 01 00:00:00

Discogs

Этот торрент недоступен для скачивания без регистрации, однако доступен по публичной magnet-ссылке (источники с публичных трекеров). Перед использованием ссылки прочтите, пожалуйста Пользовательское соглашение, а также как можно дольше оставайтесь на раздаче! Для того, чтобы скачать сам торрент-файл (который видит больше источников), а также для того, чтобы поблагодарить релизера, вам необходимо зарегистрироваться. Если регистрироваться лень - вы можете также попробовать скачать релиз по нашим партнерским ссылкам ниже. Кроме того, зарегистрированным пользователям не показывается всплывающая реклама при скачивании.

[underverse.me].t96574.torrent
Трекер: Зарегистрирован   [ 16.02.2018 05:59 ]  

Статус: проверено (by Бишеп at 16.02.2018 06:00)
Поблагодарили: пока никто не поблагодарил...
Тип торрента: публичный - доступные источники с открытых трекеров: 
Размер: 479 MB (занимает 0,11 DVDR, для записи нужно 1 болванка DVDR/RW)
 
 
Похожие темы
Форум Тема Автор Торрент Отв. Посл. сооб.
Jazz (Contemporary Jazz) Dock In Absolute - Dock In Absolute (2017) [MP3, 320 kbps CBR] Darkferse
1 | 0

0 | 521

2

23.05.2017 08:30

Jazz (Contemporary Jazz, Soul, Hip Hop) Alfa Mist - Antiphon (2017) [MP3, 320 kbps CBR] Darkferse
27 | 1

0 | 828

2

17.05.2017 10:15

Jazz (Contemporary Jazz, Vocal Jazz, Modern Creative) Theo Bleckmann - Elegy (2017) [MP3, 320 kbps CBR] Darkferse
2 | 0

0 | 499

3

26.05.2017 14:13

Jazz (Contemporary Jazz) Kyoto Jazz Sextet - Unity (2017) [MP3, 320 kbps CBR] Darkferse
1 | 0

0 | 405

2

17.06.2017 12:04

Jazz (Contemporary Jazz) Verneri Pohjola - Pekka (2017) [MP3, 320 kbps CBR] Darkferse
5 | 0

0 | 420

1

17.06.2017 12:11

Jazz (Contemporary Jazz) Denys Baptiste - The Late Trane (2017) [MP3, 320 kbps CBR] Darkferse
1 | 0

0 | 293

1

20.06.2017 20:39

Jazz (Contemporary Jazz) Lucia Ianniello - Live At Acuto Jazz (2017) [MP3, 320 kbps CBR] Darkferse
2 | 0

0 | 174

1

12.12.2017 09:48

Jazz (Contemporary Jazz, Free Improvisation) Markus Stockhausen - Far into the Stars (2017) [MP3, 320 kbps CBR] Darkferse
2 | 1

0 | 672

3

27.08.2017 06:39

Jazz (Contemporary Jazz, Classical Crossover, Violin) Naoko Terai - The Standard (2017) [MP3, 320 kbps CBR] Darkferse
5 | 0

0 | 336

2

01.01.2018 22:22

Jazz (Contemporary Jazz, Fusion) Josiah Woodson - Suite Elemental (2017) [MP3, 320 kbps CBR] Darkferse
2 | 0

0 | 159

1

02.01.2018 10:24


Яндекс.Метрика powered by Sphinx


В Н И М А Н И Е
Сайт не распространяет и не хранит электронные версии произведений, а лишь бесплатно и без коммерческой выгоды (не требуя взамен платы,
SMS и т.д.) предоставляет доступ к создаваемому пользователями каталогу ссылок на торрент-файлы, которые содержат только списки хеш-сумм.
Убедительная просьба с жалобами обращаться напрямую к пользователю, разместившему торрент файл.

Вверх