Loading...
Error

(Авторская песня, Rock, Acoustic) Андрей Макаревич - Облака (песни Александра Галича) (2014) [FLAC (Tracks+.Cue), Lossless]

Статистика раздачи
Размер:  264 MB   |    Зарегистрирован:  3 месяца 11 дней   |    Скачан:  3 раза
Сидов:  1  |  0 KB/s  ]   Личеров:  0  |  0 KB/s  ]

* - сиды/пиры с внешних источников

   
 
Автор Сообщение

Бишеп Пол:Муж

16-Фев-2018 05:52

Андрей Макаревич - Облака

Жанр: Авторская песня, Rock, Acoustic
Год выпуска: 2014
Источник: CD
Производитель диска: Sintez Records - SRCD 00113
Аудиокодек: FLAC
Тип рипа: Tracks+.CUE
Битрейт аудио: lossless
Продолжительность: 00:41:03


Треклист:
01. Облака (3:03)
02. Засыпая и просыпаясь (2:21)
03. Закон природы (1:59)
04. Летят утки (3:24)
05. Ещё раз о Чёрте (3:28)
06. На сопках Манчжурии (памяти М. Зощенко) (7:18)
07. Старательский вальсок (2:28)
08. Караганда (песня про генеральскую дочь) (4:17)
09. Отчий дом (2:44)
10. Когда вернусь (2:10)
11. После вечеринки (2:44)
12. За чужую печаль... (1:19)
13. Мазурка на смерть поэта (А. Макаревич) (бонус трек) (3:48)

Код:

Exact Audio Copy V1.0 beta 3 from 29. August 2011

Отчёт EAC об извлечении, выполненном 21. февраля 2014, 13:39

Андрей Макаревич / Облака (песни Александра Галича)

Дисковод: PIONEER DVD-RW  DVR-218L   Adapter: 0  ID: 0

Режим чтения                 : Достоверность
Использование точного потока : Да
Отключение кэша аудио        : Да
Использование указателей C2  : Нет

Коррекция смещения при чтении                     : 6
Способность читать области Lead-in и Lead-out     : Нет
Заполнение пропущенных сэмплов тишиной            : Да
Удаление блоков с тишиной в начале и конце        : Нет
При вычислениях CRC использовались нулевые сэмплы : Да
Интерфейс                                         : Встроенный Win32-интерфейс для Win NT/2000
Обработка зазоров                                 : Добавлено к предыдущему треку

Выходной формат          : Пользовательский кодировщик
Выбранный битрейт        : 128 kBit/s
Качество                 : Высокий
Добавление ID3-тега      : Нет
Утилита сжатия           : C:\Program Files (x86)\Exact Audio Copy\Flac\flac.exe
Дополнительные параметры : -V -7 -T "Genre=%genre%" -T "Artist=%artist%" -T "Title=%title%" -T "Album=%albumtitle%" -T "Date=%year%" -T "Tracknumber=%tracknr%" -T "Comment=%comment%" %source%

TOC извлечённого CD

     Трек |   Старт  | Длительность | Начальный сектор | Конечный сектор
    ---------------------------------------------------------------------
       1  |  0:00.00 |    3:03.17   |           0      |      13741     
       2  |  3:03.17 |    2:21.16   |       13742      |      24332     
       3  |  5:24.33 |    1:58.70   |       24333      |      33252     
       4  |  7:23.28 |    3:23.60   |       33253      |      48537     
       5  | 10:47.13 |    3:27.53   |       48538      |      64115     
       6  | 14:14.66 |    7:18.15   |       64116      |      96980     
       7  | 21:33.06 |    2:28.23   |       96981      |     108103     
       8  | 24:01.29 |    4:16.44   |      108104      |     127347     
       9  | 28:17.73 |    2:43.48   |      127348      |     139620     
      10  | 31:01.46 |    2:09.63   |      139621      |     149358     
      11  | 33:11.34 |    2:44.32   |      149359      |     161690     
      12  | 35:55.66 |    1:19.06   |      161691      |     167621     
      13  | 37:14.72 |    3:47.61   |      167622      |     184707     

Трек  1

     Имя файла F:\_МУЗЫКА\Андрей Макаревич - Облака (песни Александра Галича) (2014)\01 Облака.wav

     Длина предзазора  0:00:02.00

     Пиковый уровень 100.0 %
     Скорость извлечения 0.9 X
     Качество трека 99.9 %
     CRC теста 8E42A567
     CRC копии 8E42A567
     Трек не обнаружен в базе AccurateRip
     Копирование... OK

Трек  2

     Имя файла F:\_МУЗЫКА\Андрей Макаревич - Облака (песни Александра Галича) (2014)\02 Засыпая и просыпаясь.wav

     Пиковый уровень 100.0 %
     Скорость извлечения 1.1 X
     Качество трека 100.0 %
     CRC теста 77F34E58
     CRC копии 77F34E58
     Трек не обнаружен в базе AccurateRip
     Копирование... OK

Трек  3

     Имя файла F:\_МУЗЫКА\Андрей Макаревич - Облака (песни Александра Галича) (2014)\03 Закон природы.wav

     Пиковый уровень 100.0 %
     Скорость извлечения 1.1 X
     Качество трека 100.0 %
     CRC теста CD8FB82D
     CRC копии CD8FB82D
     Трек не обнаружен в базе AccurateRip
     Копирование... OK

Трек  4

     Имя файла F:\_МУЗЫКА\Андрей Макаревич - Облака (песни Александра Галича) (2014)\04 Летят утки.wav

     Пиковый уровень 100.0 %
     Скорость извлечения 1.3 X
     Качество трека 100.0 %
     CRC теста 25DF7FAA
     CRC копии 25DF7FAA
     Трек не обнаружен в базе AccurateRip
     Копирование... OK

Трек  5

     Имя файла F:\_МУЗЫКА\Андрей Макаревич - Облака (песни Александра Галича) (2014)\05 Ещё раз о Чёрте.wav

     Пиковый уровень 100.0 %
     Скорость извлечения 1.4 X
     Качество трека 100.0 %
     CRC теста 9D715B82
     CRC копии 9D715B82
     Трек не обнаружен в базе AccurateRip
     Копирование... OK

Трек  6

     Имя файла F:\_МУЗЫКА\Андрей Макаревич - Облака (песни Александра Галича) (2014)\06 На сопках Манчжурии (памяти М. Зощенко).wav

     Пиковый уровень 100.0 %
     Скорость извлечения 1.7 X
     Качество трека 100.0 %
     CRC теста 69FB5EC5
     CRC копии 69FB5EC5
     Трек не обнаружен в базе AccurateRip
     Копирование... OK

Трек  7

     Имя файла F:\_МУЗЫКА\Андрей Макаревич - Облака (песни Александра Галича) (2014)\07 Старательский вальсок.wav

     Пиковый уровень 100.0 %
     Скорость извлечения 1.5 X
     Качество трека 100.0 %
     CRC теста A9948454
     CRC копии A9948454
     Трек не обнаружен в базе AccurateRip
     Копирование... OK

Трек  8

     Имя файла F:\_МУЗЫКА\Андрей Макаревич - Облака (песни Александра Галича) (2014)\08 Караганда (песня про генеральскую дочь).wav

     Пиковый уровень 100.0 %
     Скорость извлечения 1.7 X
     Качество трека 100.0 %
     CRC теста D2E32B63
     CRC копии D2E32B63
     Трек не обнаружен в базе AccurateRip
     Копирование... OK

Трек  9

     Имя файла F:\_МУЗЫКА\Андрей Макаревич - Облака (песни Александра Галича) (2014)\09 Отчий дом.wav

     Пиковый уровень 100.0 %
     Скорость извлечения 1.4 X
     Качество трека 99.9 %
     CRC теста 07CEE4F4
     CRC копии 07CEE4F4
     Трек не обнаружен в базе AccurateRip
     Копирование... OK

Трек 10

     Имя файла F:\_МУЗЫКА\Андрей Макаревич - Облака (песни Александра Галича) (2014)\10 Когда вернусь.wav

     Пиковый уровень 100.0 %
     Скорость извлечения 1.6 X
     Качество трека 100.0 %
     CRC теста BA9A62CB
     CRC копии BA9A62CB
     Трек не обнаружен в базе AccurateRip
     Копирование... OK

Трек 11

     Имя файла F:\_МУЗЫКА\Андрей Макаревич - Облака (песни Александра Галича) (2014)\11 После вечеринки.wav

     Пиковый уровень 100.0 %
     Скорость извлечения 1.8 X
     Качество трека 100.0 %
     CRC теста FF268846
     CRC копии FF268846
     Трек не обнаружен в базе AccurateRip
     Копирование... OK

Трек 12

     Имя файла F:\_МУЗЫКА\Андрей Макаревич - Облака (песни Александра Галича) (2014)\12 За чужую печаль....wav

     Пиковый уровень 74.2 %
     Скорость извлечения 1.5 X
     Качество трека 100.0 %
     CRC теста 61573196
     CRC копии 61573196
     Трек не обнаружен в базе AccurateRip
     Копирование... OK

Трек 13

     Имя файла F:\_МУЗЫКА\Андрей Макаревич - Облака (песни Александра Галича) (2014)\13 Мазурка на смерть поэта (А. Макаревич) (бонус трек).wav

     Пиковый уровень 100.0 %
     Скорость извлечения 1.9 X
     Качество трека 100.0 %
     CRC теста FA98A359
     CRC копии FA98A359
     Трек не обнаружен в базе AccurateRip
     Копирование... OK

Ни одного трека нет в базе AccurateRip

Ошибок не произошло

Конец отчёта

==== Контрольная сумма отчёта D137BFC098F3A19946E18D76DE5D62793B66CCB1AD19FD65641549776E4BE5C3 ====

Код:

REM GENRE "Авторская песня"
REM DATE 2014
REM DISCID C8099E0D
REM COMMENT "ExactAudioCopy v1.0b3"
PERFORMER "Андрей Макаревич"
TITLE "Облака (песни Александра Галича)"
FILE "01 Облака.wav" WAVE
  TRACK 01 AUDIO
    TITLE "Облака"
    PERFORMER "Андрей Макаревич"
    INDEX 01 00:00:00
FILE "02 Засыпая и просыпаясь.wav" WAVE
  TRACK 02 AUDIO
    TITLE "Засыпая и просыпаясь"
    PERFORMER "Андрей Макаревич"
    INDEX 01 00:00:00
FILE "03 Закон природы.wav" WAVE
  TRACK 03 AUDIO
    TITLE "Закон природы"
    PERFORMER "Андрей Макаревич"
    INDEX 01 00:00:00
FILE "04 Летят утки.wav" WAVE
  TRACK 04 AUDIO
    TITLE "Летят утки"
    PERFORMER "Андрей Макаревич"
    INDEX 01 00:00:00
FILE "05 Ещё раз о Чёрте.wav" WAVE
  TRACK 05 AUDIO
    TITLE "Ещё раз о Чёрте"
    PERFORMER "Андрей Макаревич"
    INDEX 01 00:00:00
FILE "06 На сопках Манчжурии (памяти М. Зощенко).wav" WAVE
  TRACK 06 AUDIO
    TITLE "На сопках Манчжурии (памяти М. Зощенко)"
    PERFORMER "Андрей Макаревич"
    INDEX 01 00:00:00
FILE "07 Старательский вальсок.wav" WAVE
  TRACK 07 AUDIO
    TITLE "Старательский вальсок"
    PERFORMER "Андрей Макаревич"
    INDEX 01 00:00:00
FILE "08 Караганда (песня про генеральскую дочь).wav" WAVE
  TRACK 08 AUDIO
    TITLE "Караганда (песня про генеральскую дочь)"
    PERFORMER "Андрей Макаревич"
    INDEX 01 00:00:00
FILE "09 Отчий дом.wav" WAVE
  TRACK 09 AUDIO
    TITLE "Отчий дом"
    PERFORMER "Андрей Макаревич"
    INDEX 01 00:00:00
FILE "10 Когда вернусь.wav" WAVE
  TRACK 10 AUDIO
    TITLE "Когда вернусь"
    PERFORMER "Андрей Макаревич"
    INDEX 01 00:00:00
FILE "11 После вечеринки.wav" WAVE
  TRACK 11 AUDIO
    TITLE "После вечеринки"
    PERFORMER "Андрей Макаревич"
    INDEX 01 00:00:00
FILE "12 За чужую печаль....wav" WAVE
  TRACK 12 AUDIO
    TITLE "За чужую печаль..."
    PERFORMER "Андрей Макаревич"
    INDEX 01 00:00:00
FILE "13 Мазурка на смерть поэта (А. Макаревич) (бонус трек).wav" WAVE
  TRACK 13 AUDIO
    TITLE "Мазурка на смерть поэта (А. Макаревич) (бонус трек)"
    PERFORMER "Андрей Макаревич"
    INDEX 01 00:00:00

Discogs

Этот торрент недоступен для скачивания без регистрации, однако доступен по публичной magnet-ссылке (источники с публичных трекеров). Перед использованием ссылки прочтите, пожалуйста Пользовательское соглашение, а также как можно дольше оставайтесь на раздаче! Для того, чтобы скачать сам торрент-файл (который видит больше источников), а также для того, чтобы поблагодарить релизера, вам необходимо зарегистрироваться. Если регистрироваться лень - вы можете также попробовать скачать релиз по нашим партнерским ссылкам ниже. Кроме того, зарегистрированным пользователям не показывается всплывающая реклама при скачивании.

[underverse.me].t96572.torrent
Трекер: Зарегистрирован   [ 16.02.2018 05:52 ]  

Статус: проверено (by Бишеп at 16.02.2018 05:52)
Поблагодарили: пока никто не поблагодарил...
Тип торрента: публичный - доступные источники с открытых трекеров: 
Размер: 264 MB (занимает 0,06 DVDR, для записи нужно 1 болванка DVDR/RW)
 
 
Похожие темы
Форум Тема Автор Торрент Отв. Посл. сооб.
Авторские песни, Барды (Авторская песня) Владимир Высоцкий - Полная коллекция (2009) [MP3, 320 kbps] Добрый жмот
6 | 2

11 | 5762

78

31.07.2013 07:22

Авторские песни, Барды (Авторская песня) Тимур Шаов - О чем молчал Герасим... (2010) [MP3, 320 kbps] KonKoSerg
11 | 0

4 | 2521

25

24.08.2013 06:03

Авторские песни, Барды (Авторская песня) Татьяна и Сергей Никитины - Городок, что я выдумал (2011) [MP3, 320 kbps] KonKoSerg
2 | 1

1 | 2786

39

11.05.2013 10:18

Авторские песни, Барды (Авторская песня) Владимир Высоцкий - Дискография [22 СD] (2001-2007) [MP3, 320 CBR] vovanig
2 | 0

2 | 3341

56

07.08.2014 19:18

Авторские песни, Барды (Авторская песня) Семён Слепаков - Альбом 1 (2012) [MP3, 320 kbps CBR] Бишеп
2 | 0

1 | 1971

53

11.05.2013 07:53

Авторские песни, Барды (Авторская песня, Фолк) Никола Емелин (Емеля) - Дискография (6 альбомов) (1989 - 2011) [MP3, 64-320 kbps] gregsib
11 | 0

1 | 1918

22

05.07.2013 18:48

Авторские песни, Барды (Авторская песня) Вячеслав Мясников (Уральские пельмени) - Сборник песен (2014) [MP3, 128-320 kbps CBR] terra07
1 | 0

1 | 2594

42

09.12.2015 14:37

Авторские песни, Барды (Авторская песня) Владимир Высоцкий - Спасибо, что живой. Песни из кинофильма... - и не только (2012) [MP3, 320 kbps CBR] valera87
1 | 0

0 | 1183

7

14.03.2015 16:31

Авторские песни, Барды (Lossless) (Авторская песня) Владимир Высоцкий - Grand Collection. Часть 1 / Часть 2 (2004) [FLAC (Tracks+.CUE), lossless] garry
0 | 0

1 | 1791

12

21.04.2012 07:06

# Авторские песни, Барды (Lossless) (Авторская песня) Евгений Баранник - На Прорезной (2010) [FLAC (Tracks+.CUE), lossless] garry
0 | 0

0 | 2375

1

20.02.2012 18:25


Яндекс.Метрика powered by Sphinx


В Н И М А Н И Е
Сайт не распространяет и не хранит электронные версии произведений, а лишь бесплатно и без коммерческой выгоды (не требуя взамен платы,
SMS и т.д.) предоставляет доступ к создаваемому пользователями каталогу ссылок на торрент-файлы, которые содержат только списки хеш-сумм.
Убедительная просьба с жалобами обращаться напрямую к пользователю, разместившему торрент файл.

Вверх