Loading...
Error

Осколки неба / Calico Skies (Валерио Эспозито) [2016 г., триллер, драма, WEB-DL 720p] MVO (Синема УС)

Статистика раздачи
Размер:  2,77 GB   |    Зарегистрирован:  3 месяца 12 дней   |    Скачан:  10 раз

Полного источника не было: 2 дня 13 часов

Сидов:  0  |  0 KB/s  ]   Личеров:  0  |  0 KB/s  ]

* - сиды/пиры с внешних источников

   
 
Автор Сообщение

makkol Пол:Муж

13-Фев-2018 14:04

Осколки неба / Calico Skies


Год выпуска: 2016
Жанр: триллер, драма
Производство: Россия , Италия [Hot Tub Films]
Режиссер: Валерио Эспозито
В ролях: Том Сайзмор, Кристина Беннетт Линд, Винсент Пасторе Кайова, Гордон Шарлотта, Де Брёйне, Роберт ЛаСардо, Малкольм Баррет, Марко Хэнлиэн, Джонни Синклер Серафини, Шон Фуллер
Сюжет фильма:
Феникс ведет жизнь в вынужденной изоляции, живя один в доме, как можно дальше от остального мира. Феникс делает одну вещь и только одну вещь: он роет ямы. Каждый месяц он роет яму в пустыне и что-то зарывает. Последняя связь с миром, это человек, который доставляет почту. Но благодаря новой,красивой и остроумной почтальонше Ариэль, спокойная жизнь Феникса кончается, что приводит к опасным последствиям, которые невозможно будет избежать.

  • Мировая премьера: 15 августа 2017


Качество видео: WEB-DL 720p

Продолжительность: 01:19:39
Формат: MKV
Видео: MPEG-4 AVC, 1280x530 (2.40:1), 23.976 fps, 4588 kbps
Аудио: русский, любительский многоголосый закадровый (Синема УС), AC3 2.0, 48 kHz, 384 kbps

Код:

Формат : Matroska
Версия формата : Version 2
Размер файла : 2,77 Гбайт
Продолжительность : 1 ч. 19 м.
Режим общего битрейта : Переменный
Общий поток : 4973 Кбит/сек
Дата кодирования : UTC 2018-02-12 06:03:34
Программа кодирования : mkvmerge v8.3.0 ('Over the Horizon') 64bit
Библиотека кодирования : libebml v1.3.1 + libmatroska v1.4.2

Видео
Идентификатор : 1
Формат : AVC
Формат/Информация : Advanced Video Codec
Профиль формата : High@L4.1
Параметр CABAC формата : Да
Параметр ReFrames формата : 4 кадра
Идентификатор кодека : V_MPEG4/ISO/AVC
Продолжительность : 1 ч. 19 м.
Вид битрейта : Переменный
Битрейт : 4588 Кбит/сек
Максимальный битрейт : 5000 Кбит/сек
Ширина : 1280 пикселей
Высота : 530 пикселей
Соотношение сторон : 2,40:1
Режим частоты кадров : Постоянный
Частота кадров : 23,976 (24000/1001) кадра/сек
Стандарт вещания : Component
Цветовое пространство : YUV
Субдискретизация насыщенности : 4:2:0
Битовая глубина : 8 бит
Тип развёртки : Прогрессивная
Бит/(Пиксели*Кадры) : 0.276
Размер потока : 2,50 Гбайт (90%)
Default : Да
Forced : Нет
Цветовой диапазон : Limited
Основные цвета : BT.709
Характеристики трансфера : BT.709
Коэффициенты матрицы : BT.709

Аудио
Идентификатор : 2
Формат : AC-3
Формат/Информация : Audio Coding 3
Расширение режима : CM (complete main)
Параметр Endianness формата : Big
Идентификатор кодека : A_AC3
Продолжительность : 1 ч. 19 м.
Вид битрейта : Постоянный
Битрейт : 384 Кбит/сек
Каналы : 2 канала
Расположение каналов : Front: L R
Частота : 48,0 КГц
Частота кадров : 31,250 кадров/сек (1536 spf)
Метод сжатия : С потерями
Размер потока : 219 Мбайт (8%)
Default : Да
Forced : Нет


picpicpicpicpic
Для увеличения картинки щелкните мышкой по превью

Этот торрент недоступен для скачивания без регистрации, однако доступен по публичной magnet-ссылке (источники с публичных трекеров). Перед использованием ссылки прочтите, пожалуйста Пользовательское соглашение, а также как можно дольше оставайтесь на раздаче! Для того, чтобы скачать сам торрент-файл (который видит больше источников), а также для того, чтобы поблагодарить релизера, вам необходимо зарегистрироваться. Если регистрироваться лень - вы можете также попробовать скачать релиз по нашим партнерским ссылкам ниже. Кроме того, зарегистрированным пользователям не показывается всплывающая реклама при скачивании.

[underverse.me].t96369.torrent
Трекер: Зарегистрирован   [ 13.02.2018 14:04 ]  

Статус: T временная (by makkol at 13.02.2018 14:04)
Поблагодарили: пока никто не поблагодарил...
Тип торрента: публичный - доступные источники с открытых трекеров: 
Размер: 2,77 GB (занимает 0,63 DVDR, для записи нужно 1 болванка DVDR/RW)
 
 
Похожие темы
Форум Тема Автор Торрент Отв. Посл. сооб.
T Зарубежное кино [DVDRip, Low-Res HDRip, и т.д.] Осколки неба / Calico Skies (Валерио Эспозито) [2016 г., триллер, драма, WEB-DLRip] MVO (Синема УС) makkol
1 | 0

0 | 394

12

13.02.2018 13:57


Яндекс.Метрика powered by Sphinx


В Н И М А Н И Е
Сайт не распространяет и не хранит электронные версии произведений, а лишь бесплатно и без коммерческой выгоды (не требуя взамен платы,
SMS и т.д.) предоставляет доступ к создаваемому пользователями каталогу ссылок на торрент-файлы, которые содержат только списки хеш-сумм.
Убедительная просьба с жалобами обращаться напрямую к пользователю, разместившему торрент файл.

Вверх