Loading...
Error

В воздухе повеяло красным (Цвет воздуха — красный) / Le fond de l'air est rouge (2 серии) / (Крис Маркер) [1977 г., документальный, история, политика, хроника, DVDRip-MKV] Original (FRA) + SUB (RUS)

Статистика раздачи
Размер:  2,05 GB   |    Зарегистрирован:  3 месяца 9 дней   |    Скачан:  3 раза

Полного источника не было: 3 месяца 4 дня

Сидов:  0  |  0 KB/s  ]   Личеров:  0  |  0 KB/s  ]

* - сиды/пиры с внешних источников

   
 
Автор Сообщение

ARI71 Пол:Муж

13-Фев-2018 13:34

В воздухе повеяло красным (Цвет воздуха — красный) / Le fond de l'air est rouge (2 серии)


Год выпуска: 1977
Жанр: документальный, история, политика, хроника
Страна: Франция Dovidis, Institut National de l'Audiovisuel (INA), Iskra
Режиссер: Крис Маркер
В ролях: Лоуренс Кювилье, Даво Хенич, Франсуа Масперо, Ив Монтан, Франсуа Перье, Сандра Скарнати..
Сюжет фильма:
Убежденный марксист и утонченный скептик Крис Маркер собрал огромное количество архивных киноматериалов в сочетающем качестве эссе, эпоса, энциклопедии и сна в фильме о взлете и последующем упадке новых левых в 1960-1970 годах. Лестница из «Броненосца «Потемкина», американский пилот, бодро рассказывающий о том, как приятно сбрасывать напалм, Фидель Кастро, Че Гевара, Мао Цзэдун, Сальвадор Алльенде, Жорж Марше, коммунистические лидеры разных стран, бастующие рабочие и мятежные студенты, Пражская весна и Уотергейтский скандал.

Качество видео: DVDRip-MKV

Продолжительность: 2 x ~01:30:00
Формат: MKV
Видео: XviD, 608x448, 1524 kbps
Аудио: французский, оригинал, MP3 (mono), 82,6 kbps
Субтитры: тип: вшитые отключаемые, русский, формат: SRT

Код:

Общее
Уникальный идентификатор : 170184315465188871336874131698136098736 (0x80084E926FC4A1AE86E8CE5A73EFA7B0)
Полное имя : D:\Le.fond.de.l'air.est.rouge.1977.DVDRip\Part.2.Les.Mains.Coupees.1977.RUS.SUB.mkv
Формат : Matroska
Версия формата : Version 4 / Version 2
Размер файла : 1,02 Гбайт
Продолжительность : 1 ч. 31 м.
Режим общего битрейта : Переменный
Общий поток : 1609 Кбит/сек
Дата кодирования : UTC 2018-02-10 10:56:56
Программа кодирования : mkvmerge v9.6.0 ('Slave To Your Mind') 64bit
Библиотека кодирования : libebml v1.3.4 + libmatroska v1.4.5

Видео
Идентификатор : 1
Формат : MPEG-4 Visual
Профиль формата : Advanced Simple@L5
Настройки формата : BVOP2
Параметр BVOP формата : 2
Параметр QPel формата : Нет
Параметр GMC формата : Без точки перехода
Параметр матрицы формата : Default (MPEG)
Идентификатор кодека : V_MS/VFW/FOURCC / XVID
Идентификатор кодека/Подсказка : XviD
Продолжительность : 1 ч. 31 м.
Битрейт : 1524 Кбит/сек
Ширина : 608 пикселей
Высота : 448 пикселей
Соотношение сторон : 4:3
Режим частоты кадров : Постоянный
Частота кадров : 25,000 кадров/сек
Цветовое пространство : YUV
Субдискретизация насыщенности : 4:2:0
Битовая глубина : 8 бит
Тип развёртки : Прогрессивная
Метод сжатия : С потерями
Бит/(Пиксели*Кадры) : 0.224
Размер потока : 992 Мбайт (95%)
Библиотека кодирования : XviD 1.1.2 (UTC 2006-11-01)
Default : Да
Forced : Нет

Аудио
Идентификатор : 2
Формат : MPEG Audio
Версия формата : Version 1
Профиль формата : Layer 3
Идентификатор кодека : A_MPEG/L3
Идентификатор кодека/Подсказка : MP3
Продолжительность : 1 ч. 31 м.
Вид битрейта : Переменный
Битрейт : 82,6 Кбит/сек
Минимальный битрейт : 32,0 Кбит/сек
Каналы : 1 канал
Частота : 48,0 КГц
Частота кадров : 41,667 кадра/сек (1152 SPF)
Метод сжатия : С потерями
Размер потока : 53,7 Мбайт (5%)
Заголовок : Français
Библиотека кодирования : LAME3.97b
Настройки программы : -m m -V 4 -q 3 -lowpass 17.5 --vbr-new -b 32
Язык : French
Default : Да
Forced : Нет

Текст
Идентификатор : 3
Формат : UTF-8
Идентификатор кодека : S_TEXT/UTF8
Идентификатор кодека/Информация : UTF-8 Plain Text
Продолжительность : 1 ч. 28 м.
Битрейт : 141 бит/сек
ElementCount : 1138
Размер потока : 91,9 Кбайт (0%)
Заголовок : Русский
Язык : Russian
Default : Да
Forced : Нет
1. Хрупкие руки / Les Mains Fragiles
Первая часть, «Хрупкие руки», посвящена формированию левых движений на рубеже судьбоносного 1967 года, когда революция «была в воздухе и должна была быть, как улыбка Чеширского кота», а также под влиянием войны во Вьетнаме, пробудившей утопические мечтания радикалов всех мастей по всему миру.

2. Отсеченные руки / Les Mains Coupees
Вторая часть, «Отсеченные руки» детализирует процесс упадка левых сил под давлением внутренних (разногласия между различными фракциями) и внешних (роль США и СССР в сохранении статуса кво в зависимых от них странах) факторов.
Перевод выполнен Евгением Алексеевичем Евсейчиком и Блёэн Исамбард, за что им огромное спасибо.
picpicpicpicpic
Для увеличения картинки щелкните мышкой по превью

Этот торрент недоступен для скачивания без регистрации, однако доступен по публичной magnet-ссылке (источники с публичных трекеров). Перед использованием ссылки прочтите, пожалуйста Пользовательское соглашение, а также как можно дольше оставайтесь на раздаче! Для того, чтобы скачать сам торрент-файл (который видит больше источников), а также для того, чтобы поблагодарить релизера, вам необходимо зарегистрироваться. Если регистрироваться лень - вы можете также попробовать скачать релиз по нашим партнерским ссылкам ниже. Кроме того, зарегистрированным пользователям не показывается всплывающая реклама при скачивании.

[underverse.me].t96366.torrent
Трекер: Зарегистрирован   [ 13.02.2018 13:34 ]  

Статус: проверено (by ARI71 at 13.02.2018 13:35)
Поблагодарили: пока никто не поблагодарил...
Тип торрента: публичный - доступные источники с открытых трекеров: 
Размер: 2,05 GB (занимает 0,47 DVDR, для записи нужно 1 болванка DVDR/RW)
 
 
Похожие темы
Форум Тема Автор Торрент Отв. Посл. сооб.
T Зарубежное кино [DVDRip, Low-Res HDRip, и т.д.] В воздухе / Aloft (Клаудия Льоса) [2014 г., драма, HDRip] MVO makkol
1 | 0

0 | 899

11

19.06.2016 12:39

T Архив (зарубежное кино высокого качества) В воздухе / Aloft (Клаудия Льоса) [2014 г., драма, BDRip 720p] MVO + Original makkol
0 | 0

1 | 751

7

31.01.2018 18:27

T Архив (зарубежное кино высокого качества) В воздухе / Aloft (Клаудия Льоса) [2014 г., драма, BDRip 1080p] MVO + Original makkol
0 | 0

1 | 813

8

31.01.2018 18:27


Яндекс.Метрика powered by Sphinx


В Н И М А Н И Е
Сайт не распространяет и не хранит электронные версии произведений, а лишь бесплатно и без коммерческой выгоды (не требуя взамен платы,
SMS и т.д.) предоставляет доступ к создаваемому пользователями каталогу ссылок на торрент-файлы, которые содержат только списки хеш-сумм.
Убедительная просьба с жалобами обращаться напрямую к пользователю, разместившему торрент файл.

Вверх