Loading...
Error

(Rock, Classic Rock) VA - Александр Башлачёв. Серебро и Слёзы. Трибьют (2014) [FLAC (Tracks+.Cue), Lossless]

Статистика раздачи
Размер:  655 MB   |    Зарегистрирован:  3 месяца 12 дней   |    Скачан:  1 раз

Полного источника не было: 3 месяца 7 дней

Сидов:  0  |  0 KB/s  ]   Личеров:  0  |  0 KB/s  ]

* - сиды/пиры с внешних источников

   
 
Автор Сообщение

Бишеп Пол:Муж

13-Фев-2018 11:39

VA - Александр Башлачёв. Серебро и Слёзы. Трибьют

Жанр: Rock, Classic Rock
Год выпуска: 2014
Источник: CD
Производитель диска: Navigator Records - NR 3514 CDp
Аудиокодек: FLAC
Тип рипа: Tracks+.CUE
Битрейт аудио: lossless
Продолжительность: 01:06:51


Треклист:
01. Дмитрий Ревякин - Время колокольчиков (05:30)
02. Юрий Шевчук - Лихо (04:53)
03. Александр Васильев - Петербургская свадьба (04:21)
04. Эдмунд Шклярский - Спроси, звезда (04:44)
05. Константин Кинчев - Мельница (08:46)
06. Гарик Сукачёв - Зимняя сказка (05:30)
07. Юрий Наумов - Поезд (03:17)
08. Александр Ф. Скляр - Чёрные дыры (04:14)
09. Сергей Богаев - Некому берёзу заломати (04:40)
10. Вячеслав Бутусов - Посошок (06:52)
11. Дмитрий Ревякин - Все от винта (06:18)
12. Дмитрий Ревякин - Петербургская свадьба (Bonus Track) (07:46)

Код:

Exact Audio Copy V1.1 from 23. June 2015

EAC extraction logfile from 11. September 2015, 2:52

VA / Александр Башлачёв. Серебро и слёзы

Used drive  : ASUS    DRW-22B3S   Adapter: 1  ID: 0

Read mode               : Secure
Utilize accurate stream : Yes
Defeat audio cache      : Yes
Make use of C2 pointers : No

Read offset correction                      : 6
Overread into Lead-In and Lead-Out          : No
Fill up missing offset samples with silence : Yes
Delete leading and trailing silent blocks   : No
Null samples used in CRC calculations       : Yes
Used interface                              : Native Win32 interface for Win NT & 2000
Gap handling                                : Appended to previous track

Used output format              : User Defined Encoder
Selected bitrate                : 768 kBit/s
Quality                         : High
Add ID3 tag                     : No
Command line compressor         : C:\Program Files\Exact Audio Copy\FLAC\FLAC.EXE
Additional command line options : -V -8 -T "Genre=%genre%" -T "Artist=%artist%" -T "Title=%title%" -T "Album=%albumtitle%" -T "Date=%year%" -T "Tracknumber=%tracknr%" -T "Comment=%comment%" %source%

TOC of the extracted CD

     Track |   Start  |  Length  | Start sector | End sector
    ---------------------------------------------------------
        1  |  0:00.00 |  5:29.64 |         0    |    24738   
        2  |  5:29.64 |  4:53.28 |     24739    |    46741   
        3  | 10:23.17 |  4:21.12 |     46742    |    66328   
        4  | 14:44.29 |  4:44.21 |     66329    |    87649   
        5  | 19:28.50 |  8:45.61 |     87650    |   127085   
        6  | 28:14.36 |  5:30.06 |    127086    |   151841   
        7  | 33:44.42 |  3:16.43 |    151842    |   166584   
        8  | 37:01.10 |  4:14.28 |    166585    |   185662   
        9  | 41:15.38 |  4:39.41 |    185663    |   206628   
       10  | 45:55.04 |  6:52.03 |    206629    |   237531   
       11  | 52:47.07 |  6:17.74 |    237532    |   265880   
       12  | 59:05.06 |  7:45.72 |    265881    |   300827   

Track  1

     Filename H:\g.y.m\VA - Александр Башлачёв. Серебро и слёзы (трибьют) (2014) [NR 3514 CDp]\01. Время колокольчиков.wav

     Pre-gap length  0:00:02.00

     Peak level 96.5 %
     Extraction speed 5.6 X
     Track quality 100.0 %
     Test CRC D1604BC6
     Copy CRC D1604BC6
     Track not present in AccurateRip database
     Copy OK

Track  2

     Filename H:\g.y.m\VA - Александр Башлачёв. Серебро и слёзы (трибьют) (2014) [NR 3514 CDp]\02. Лихо.wav

     Peak level 96.5 %
     Extraction speed 6.2 X
     Track quality 100.0 %
     Test CRC 3607E458
     Copy CRC 3607E458
     Track not present in AccurateRip database
     Copy OK

Track  3

     Filename H:\g.y.m\VA - Александр Башлачёв. Серебро и слёзы (трибьют) (2014) [NR 3514 CDp]\03. Петербургская свадьба.wav

     Peak level 99.4 %
     Extraction speed 6.7 X
     Track quality 100.0 %
     Test CRC AEBE7A8A
     Copy CRC AEBE7A8A
     Track not present in AccurateRip database
     Copy OK

Track  4

     Filename H:\g.y.m\VA - Александр Башлачёв. Серебро и слёзы (трибьют) (2014) [NR 3514 CDp]\04. Спроси, звезда.wav

     Peak level 96.5 %
     Extraction speed 7.3 X
     Track quality 100.0 %
     Test CRC 36D56DDB
     Copy CRC 36D56DDB
     Track not present in AccurateRip database
     Copy OK

Track  5

     Filename H:\g.y.m\VA - Александр Башлачёв. Серебро и слёзы (трибьют) (2014) [NR 3514 CDp]\05. Мельница.wav

     Peak level 96.5 %
     Extraction speed 8.3 X
     Track quality 100.0 %
     Test CRC 0B193E74
     Copy CRC 0B193E74
     Track not present in AccurateRip database
     Copy OK

Track  6

     Filename H:\g.y.m\VA - Александр Башлачёв. Серебро и слёзы (трибьют) (2014) [NR 3514 CDp]\06. Зимняя сказка.wav

     Peak level 96.5 %
     Extraction speed 8.6 X
     Track quality 100.0 %
     Test CRC 28BD4A63
     Copy CRC 28BD4A63
     Track not present in AccurateRip database
     Copy OK

Track  7

     Filename H:\g.y.m\VA - Александр Башлачёв. Серебро и слёзы (трибьют) (2014) [NR 3514 CDp]\07. Поезд.wav

     Peak level 50.6 %
     Extraction speed 8.4 X
     Track quality 100.0 %
     Test CRC C7405AD8
     Copy CRC C7405AD8
     Track not present in AccurateRip database
     Copy OK

Track  8

     Filename H:\g.y.m\VA - Александр Башлачёв. Серебро и слёзы (трибьют) (2014) [NR 3514 CDp]\08. Чёрные дыры.wav

     Peak level 96.5 %
     Extraction speed 9.1 X
     Track quality 100.0 %
     Test CRC A62AF310
     Copy CRC A62AF310
     Track not present in AccurateRip database
     Copy OK

Track  9

     Filename H:\g.y.m\VA - Александр Башлачёв. Серебро и слёзы (трибьют) (2014) [NR 3514 CDp]\09. Некому берёзу заломати.wav

     Peak level 96.5 %
     Extraction speed 8.0 X
     Track quality 99.9 %
     Test CRC A18C12B2
     Copy CRC A18C12B2
     Track not present in AccurateRip database
     Copy OK

Track 10

     Filename H:\g.y.m\VA - Александр Башлачёв. Серебро и слёзы (трибьют) (2014) [NR 3514 CDp]\10. Посошок.wav

     Peak level 96.5 %
     Extraction speed 9.1 X
     Track quality 99.9 %
     Test CRC F3F3008A
     Copy CRC F3F3008A
     Track not present in AccurateRip database
     Copy OK

Track 11

     Filename H:\g.y.m\VA - Александр Башлачёв. Серебро и слёзы (трибьют) (2014) [NR 3514 CDp]\11. Все от винта.wav

     Peak level 96.5 %
     Extraction speed 10.8 X
     Track quality 100.0 %
     Test CRC 54DA9982
     Copy CRC 54DA9982
     Track not present in AccurateRip database
     Copy OK

Track 12

     Filename H:\g.y.m\VA - Александр Башлачёв. Серебро и слёзы (трибьют) (2014) [NR 3514 CDp]\12. Петербургская свадьба (Bonus Track).wav

     Pre-gap length  0:00:05.00

     Peak level 96.5 %
     Extraction speed 11.3 X
     Track quality 100.0 %
     Test CRC CDA95F0B
     Copy CRC CDA95F0B
     Track not present in AccurateRip database
     Copy OK

None of the tracks are present in the AccurateRip database

No errors occurred

End of status report

==== Log checksum 6DBDA3EFC1D30B855A6A10E95B3B1150A6F3FC1A7164F7176CAD59E4C2DE06D5 ====

Код:

REM GENRE Rock
REM DATE 2014
REM DISCID AD0FAB0C
REM COMMENT "ExactAudioCopy v1.1"
PERFORMER "VA"
TITLE "Александр Башлачёв. Серебро и слёзы"
FILE "01. Время колокольчиков.wav" WAVE
  TRACK 01 AUDIO
    TITLE "Время колокольчиков"
    PERFORMER "Дмитрий Ревякин"
    INDEX 01 00:00:00
FILE "02. Лихо.wav" WAVE
  TRACK 02 AUDIO
    TITLE "Лихо"
    PERFORMER "Юрий Шевчук"
    INDEX 01 00:00:00
FILE "03. Петербургская свадьба.wav" WAVE
  TRACK 03 AUDIO
    TITLE "Петербургская свадьба"
    PERFORMER "Александр Васильев"
    INDEX 01 00:00:00
FILE "04. Спроси, звезда.wav" WAVE
  TRACK 04 AUDIO
    TITLE "Спроси, звезда"
    PERFORMER "Эдмунд Шклярский"
    INDEX 01 00:00:00
FILE "05. Мельница.wav" WAVE
  TRACK 05 AUDIO
    TITLE "Мельница"
    PERFORMER "Константин Кинчев"
    INDEX 01 00:00:00
FILE "06. Зимняя сказка.wav" WAVE
  TRACK 06 AUDIO
    TITLE "Зимняя сказка"
    PERFORMER "Гарик Сукачёв"
    INDEX 01 00:00:00
FILE "07. Поезд.wav" WAVE
  TRACK 07 AUDIO
    TITLE "Поезд"
    PERFORMER "Юрий Наумов"
    INDEX 01 00:00:00
FILE "08. Чёрные дыры.wav" WAVE
  TRACK 08 AUDIO
    TITLE "Чёрные дыры"
    PERFORMER "Александр Ф. Скляр"
    INDEX 01 00:00:00
FILE "09. Некому берёзу заломати.wav" WAVE
  TRACK 09 AUDIO
    TITLE "Некому берёзу заломати"
    PERFORMER "Сергей Богаев"
    INDEX 01 00:00:00
FILE "10. Посошок.wav" WAVE
  TRACK 10 AUDIO
    TITLE "Посошок"
    PERFORMER "Вячеслав Бутусов"
    INDEX 01 00:00:00
FILE "11. Все от винта.wav" WAVE
  TRACK 11 AUDIO
    TITLE "Все от винта"
    PERFORMER "Дмитрий Ревякин"
    INDEX 01 00:00:00
  TRACK 12 AUDIO
    TITLE "Петербургская свадьба (Bonus Track)"
    PERFORMER "Дмитрий Ревякин"
    INDEX 00 06:12:74
FILE "12. Петербургская свадьба (Bonus Track).wav" WAVE
    INDEX 01 00:00:00

Discogs

Этот торрент недоступен для скачивания без регистрации, однако доступен по публичной magnet-ссылке (источники с публичных трекеров). Перед использованием ссылки прочтите, пожалуйста Пользовательское соглашение, а также как можно дольше оставайтесь на раздаче! Для того, чтобы скачать сам торрент-файл (который видит больше источников), а также для того, чтобы поблагодарить релизера, вам необходимо зарегистрироваться. Если регистрироваться лень - вы можете также попробовать скачать релиз по нашим партнерским ссылкам ниже. Кроме того, зарегистрированным пользователям не показывается всплывающая реклама при скачивании.

[underverse.me].t96357.torrent
Трекер: Зарегистрирован   [ 13.02.2018 11:39 ]  

Статус: проверено (by Бишеп at 13.02.2018 11:39)
Поблагодарили: пока никто не поблагодарил...
Тип торрента: публичный - доступные источники с открытых трекеров: 
Размер: 655 MB (занимает 0,15 DVDR, для записи нужно 1 болванка DVDR/RW)
 
 
Похожие темы
Форум Тема Автор Торрент Отв. Посл. сооб.
Зарубежный Hard, Progressive, Soft, Melodic, AOR, Folk, Classic Rock (Rock, Classic Rock, Hard Rock) Styx - Gone Gone Gone (Single) (2017) [MP3, 320 kbps CBR] Darkferse
1 | 0

0 | 318

2

30.04.2017 09:29

Зарубежный Hard, Progressive, Melodic, AOR (Lossless) (Rock, Classic Rock, Blues Rock) Tony Rondini - No Use For The Blues (2015) [FLAC (Image+.CUE), Lossless] Бишеп
2 | 1

0 | 542

6

07.05.2015 04:24

Зарубежный Hard, Progressive, Melodic, AOR (Lossless) (Rock, Classic Rock) Dire Straits & Mark Knopfler – Private Investigations - The Best Of (2005) [FLAC (Image+.CUE), Lossless] Бишеп
3 | 0

0 | 1532

15

28.01.2016 10:12

Зарубежный Hard, Progressive, Melodic, AOR (Lossless) (Rock, Classic Rock) Electric Light Orchestra - Secret Messages (1998) [FLAC (Image+.CUE), Lossless] Бишеп
7 | 0

0 | 982

14

03.02.2016 17:21

Зарубежный Hard, Progressive, Melodic, AOR (Lossless) (Rock, Classic Rock) Dire Straits - Love Over Gold (1996) [FLAC (Image+.CUE), Lossless] Бишеп
0 | 0

0 | 891

9

04.02.2016 18:18

Зарубежный Hard, Progressive, Melodic, AOR (Lossless) (Rock, Classic Rock) The Kinks - Kinks Live At Kelvin Hall (1989) [FLAC (Image+.Cue), Lossless] Бишеп
3 | 0

0 | 785

1

08.01.2017 11:16

Отечественный Hard, Progressive, Melodic, AOR (Lossless) (Rock, Classic Rock) Воскресение - Воскресение 79 (2002) [FLAC (Image+.Cue), Lossless] Бишеп
0 | 0

0 | 1034

6

23.01.2017 08:44

Архив (HQ рок) (Rock, Classic Rock, Latin) Santana - Guitar Heaven The Greatest Guitar Classics Of All Time - 2010 (2010) [FLAC (Tracks), lossless] sergkras
0 | 0

5 | 1271

1

05.11.2011 14:45


Яндекс.Метрика powered by Sphinx


В Н И М А Н И Е
Сайт не распространяет и не хранит электронные версии произведений, а лишь бесплатно и без коммерческой выгоды (не требуя взамен платы,
SMS и т.д.) предоставляет доступ к создаваемому пользователями каталогу ссылок на торрент-файлы, которые содержат только списки хеш-сумм.
Убедительная просьба с жалобами обращаться напрямую к пользователю, разместившему торрент файл.

Вверх