Loading...
Error

Британия / Britannia (сезон 1, серии 1-9 из 9) (Шери Фоксон, Кристоф Шреве, Люк Уотсон) [2018 г., фэнтези, драма, WEB-DLRip] MVO (NewStudio) + Original

Статистика раздачи
Размер:  5,22 GB   |    Зарегистрирован:  2 месяца 13 дней   |    Скачан:  20 раз
Сидов:  2  |  0 KB/s  ]   Личеров:  0  |  0 KB/s  ]

* - сиды/пиры с внешних источников

   
 
Автор Сообщение

Паукан Пол:Муж

07-Фев-2018 19:47

Британия / Britannia (2018) WEB-DLRip (сезон 1, серии 1-9 из 9)

Производство: США, Великобритания / Amazon Studios, Film United, Neal Street Productions
Жанр: фэнтези, драма

Режиссер: Шери Фоксон, Кристоф Шреве, Люк Уотсон
Актеры: Дэвид Моррисси, Келли Райлли, Николай Ли Каас, Лиана Корнелл, Гершвин Эсташ мл., Макензи Крук, Бэрри Уорд, Стэнли Вебер, Джо Армстронг, Фортунато Серлино и др.

Описание:
События сериала происходят в начале новой эры, когда Британия была населена очень воинственными кельтскими племенами, которые были не готовы перейти под управление иноземцев, пришедших с далекого юга. Во время римского завоевания Британии две враждующие кельтские воительницы — Керра и Антедия — вынуждены объединить силы, чтобы дать отпор римским легионам под предводительством Авла Плавтия.

Дата мировой премьеры: 18 января 2018
Возраст: 18+ (зрителям, достигшим 18 лет)


Продолжительность: ~00:45:00 серия (1 серия - 01:09:40)
Качество видео: WEB-DLRip

Sample

Перевод: Многоголосый закадровый, профессиональный - NewStudio (ненормативная лексика)
Субтитры: русские (форсированные, только 1, 4, 5 серии)

Внимание! Присутствует ненормативная лексика.

Видео: XviD, 720х400 (16:9), ~1510 kbps
Аудио 1: MP3, 48,0 kHz, 2 ch, 128 kbps — русский, многоголосый закадровый
Аудио 2: MP3, 48,0 kHz, 2 ch, 128 kbps — английский
[pre]
Общее
Полное имя : D:\Британия (сезон 1) Britannia (2018) WEB-DLRip - NewStudio\Britannia.S01E01.WEB-DLRip.Rus.Eng.DV.NewStudio.avi
Формат : AVI
Формат/Информация : Audio Video Interleave
Размер файла : 888 Мбайт
Продолжительность : 1 ч. 9 м.
Общий поток : 1781 Кбит/сек
Название фильма : Britannia.S01E01.WEB-DLRip.Rus.Eng.DV.NewStudio / NNM-Club
Программа кодирования : VirtualDubModRus 1.5.10.2 (build 2542/release)
Библиотека кодирования : VirtualDubMod build 2542/release

Видео
Идентификатор : 0
Формат : MPEG-4 Visual
Профиль формата : Advanced Simple@L5
Настройки формата : BVOP2
Параметр BVOP формата : 2
Параметр QPel формата : Нет
Параметр GMC формата : Без точки перехода
Параметр матрицы формата : Default (H.263)
Идентификатор кодека : XVID
Идентификатор кодека/Подсказка : XviD
Продолжительность : 1 ч. 9 м.
Битрейт : 1511 Кбит/сек
Ширина : 720 пикселей
Высота : 400 пикселей
Соотношение сторон : 16:9
Частота кадров : 25,000 кадров/сек
Цветовое пространство : YUV
Субдискретизация насыщенности : 4:2:0
Битовая глубина : 8 бит
Тип развёртки : Прогрессивная
Метод сжатия : С потерями
Бит/(Пиксели*Кадры) : 0.210
Размер потока : 753 Мбайт (85%)
Заголовок : Rip by DriverV / NNM-Club
Библиотека кодирования : XviD 67

Аудио #1
Идентификатор : 1
Формат : MPEG Audio
Версия формата : Version 1
Профиль формата : Layer 3
Настройки формата : Joint stereo / MS Stereo
Идентификатор кодека : 55
Идентификатор кодека/Подсказка : MP3
Продолжительность : 1 ч. 9 м.
Вид битрейта : Постоянный
Битрейт : 128 Кбит/сек
Каналы : 2 канала
Частота : 48,0 КГц
Метод сжатия : С потерями
Размер потока : 63,8 Мбайт (7%)
Выравнивание : Соединение по промежуткам
Продолжительность промежутка : 40 мс. (1,00 видеокадр)
Время предзагрузки промежутка : 504 мс.

Аудио #2
Идентификатор : 2
Формат : MPEG Audio
Версия формата : Version 1
Профиль формата : Layer 3
Настройки формата : Joint stereo / MS Stereo
Идентификатор кодека : 55
Идентификатор кодека/Подсказка : MP3
Продолжительность : 1 ч. 9 м.
Вид битрейта : Постоянный
Битрейт : 128 Кбит/сек
Каналы : 2 канала
Частота : 48,0 КГц
Метод сжатия : С потерями
Размер потока : 63,8 Мбайт (7%)
Выравнивание : Соединение по промежуткам
Продолжительность промежутка : 40 мс. (1,00 видеокадр)
Время предзагрузки промежутка : 504 мс.
[/pre]
Автор перевода: Елена Прокопенко, Андрей Савельев, Юлия Мейер
Редактор: Александра Цернант
Рип: DriverV

Скриншоты:
pic pic pic pic

Этот торрент недоступен для скачивания без регистрации, однако доступен по публичной magnet-ссылке (источники с публичных трекеров). Перед использованием ссылки прочтите, пожалуйста Пользовательское соглашение, а также как можно дольше оставайтесь на раздаче! Для того, чтобы скачать сам торрент-файл (который видит больше источников), а также для того, чтобы поблагодарить релизера, вам необходимо зарегистрироваться. Если регистрироваться лень - вы можете также попробовать скачать релиз по нашим партнерским ссылкам ниже. Кроме того, зарегистрированным пользователям не показывается всплывающая реклама при скачивании.

[underverse.me].t95985.torrent
Трекер: Зарегистрирован   [ 07.02.2018 19:47 ]  

Статус: © запрещена на территории РФ (by Паукан at 14.02.2018 10:23)
Поблагодарили: 1 человек
Тип торрента: публичный - доступные источники с открытых трекеров: 
Размер: 5,22 GB (занимает 1,19 DVDR, для записи нужно 2 болванки DVDR/RW)
 
 

Яндекс.Метрика powered by Sphinx


В Н И М А Н И Е
Сайт не распространяет и не хранит электронные версии произведений, а лишь бесплатно и без коммерческой выгоды (не требуя взамен платы,
SMS и т.д.) предоставляет доступ к создаваемому пользователями каталогу ссылок на торрент-файлы, которые содержат только списки хеш-сумм.
Убедительная просьба с жалобами обращаться напрямую к пользователю, разместившему торрент файл.

Вверх