Loading...
Error

Чёрное зеркало / Black Mirror / Сезон: 4 / Серии: 1-2 из 6 (Оуэн Харрис, Карл Тиббеттс, Отто Баферст) [2017, Великобритания, фантастика, триллер, драма, WEBRip (Оуэн Харрис, Карл Тиббеттс, Отто Баферст) [2017 г., фантастика, триллер, драма, WEB-DLRip

Статистика раздачи
Размер:  2,54 GB   |    Зарегистрирован:  4 месяца 14 дней   |    Скачан:  17 раз
Сидов:  1  |  0 KB/s  ]   Личеров:  0  |  0 KB/s  ]

* - сиды/пиры с внешних источников

   
 
Автор Сообщение

p_dima90 

07-Янв-2018 15:53

Чёрное зеркало / Black Mirror / Сезон: 4 / Серии: 1-2 из 6 (Оуэн Харрис, Карл Тиббеттс, Отто Баферст) [2017, Великобритания, фантастика, триллер, драма, WEBRip


Год выпуска: 2017
Жанр: фантастика, триллер, драма
Страна: Великобритания
Режиссер: Оуэн Харрис, Карл Тиббеттс, Отто Баферст
В ролях: Брайс Даллас Ховард, Элис Ив, Гугу Мбата-Роу, Джером Флинн, Маккензи Дэвис, Алекс Лоутер, Джеймс Нортон, Келли Макдональд, Майкл Келли, Уайат Расселл, Ханна Джон-Кэймен
Сюжет фильма:
Фантастический британский телесериал перенесет зрителя в недалекое будущее, в котором человечество ждет небывалый технологический рост. Новые разработки уже успели полностью изменить наши жизни, плотно засев в окружающую действительность. Сейчас каждый имеет доступ к быстродействующим смартфонам, высококачественным телевизором, производительным компьютерам.
Мы все больше проводим время в соц сетях, предоставляя интернету все больше информации о собственной жизни и окружающих людях. Чужое мнение все больше давит на нас, заставляя следовать за обществом, которое порой может быть очень жестоким. Данный проект призван показать, что ждет людей в будущем и насколько наши жизни изменят современные технологии. Зачастую это оказывается мрачной картиной, в которой мы уже не можем контролировать себя, став марионеткой в руках хакеров, правительства, военных и корпораций. Теперь можно разрушить чью-то жизнь и разбить сердце лишь нажатием на клавиши, больше нет приватности и полной безопасности. Мы всецело отдаемся телевидению и интернету, но порой необходимо остановит этот бурно развивающийся процесс. Иначе произойдет то, что пытаются доказать

Качество видео: WEB-DLRip
Уникальный идентификатор : 15352180283392590203402354158198270015 (0xB8CB8ED5E19325F533F290E725B283F)
Полное имя : E:\Black Mirror (Season 4) WEBRip\Black.Mirror.s04e01.WEBRip(AVC).KvK.mkv
Формат : Matroska
Версия формата : Version 4 / Version 2
Размер файла : 1,52 Гбайт
Продолжительность : 1 ч. 16 м.
Общий поток : 2831 Кбит/сек
Дата кодирования : UTC 2018-01-02 22:23:16
Программа кодирования : mkvmerge v19.0.0 ('Brave Captain') 32-bit
Библиотека кодирования : libebml v1.3.5 + libmatroska v1.4.8

Видео
Идентификатор : 4
Формат : AVC
Формат/Информация : Advanced Video Codec
Профиль формата : Baseline@L1.3
Настройки формата : 2 Ref Frames
Параметр CABAC формата : Нет
Параметр RefFrames формата : 2 кадра
Идентификатор кодека : V_MPEG4/ISO/AVC
Продолжительность : 1 ч. 16 м.
Битрейт : 2100 Кбит/сек
Ширина : 1024 пикселя
Высота : 556 пикселей
Соотношение сторон : 16:9
Соотношение сторон в оригинале : 16:9
Режим частоты кадров : Постоянный
Частота кадров : 25,000 кадров/сек
Цветовое пространство : YUV
Субдискретизация насыщенности : 4:2:0
Битовая глубина : 8 бит
Тип развёртки : Прогрессивная
Бит/(Пиксели*Кадры) : 0.148
Размер потока : 1,10 Гбайт (73%)
Библиотека кодирования : x264 core 148 r2579 73ae2d1
Настройки программы : cabac=0 / ref=2 / deblock=1:0:0 / analyse=0x1:0x111 / me=umh / subme=6 / psy=1 / psy_rd=1.00:0.00 / mixed_ref=1 / me_range=16 / chroma_me=1 / trellis=0 / 8x8dct=0 / cqm=0 / deadzone=21,11 / fast_pskip=1 / chroma_qp_offset=-2 / threads=12 / lookahead_threads=2 / sliced_threads=0 / nr=0 / decimate=1 / interlaced=0 / bluray_compat=0 / constrained_intra=0 / bframes=0 / weightp=0 / keyint=250 / keyint_min=25 / scenecut=40 / intra_refresh=0 / rc_lookahead=40 / rc=abr / mbtree=1 / bitrate=2100 / ratetol=1.0 / qcomp=0.60 / qpmin=0 / qpmax=69 / qpstep=4 / ip_ratio=1.40 / aq=1:1.00
Язык : English
Default : Да
Forced : Нет

Аудио #1
Идентификатор : 1
Формат : AC-3
Формат/Информация : Audio Coding 3
Идентификатор кодека : A_AC3
Продолжительность : 1 ч. 16 м.
Вид битрейта : Постоянный
Битрейт : 384 Кбит/сек
Каналы : 6 каналов
Расположение каналов : Front: L C R, Side: L R, LFE
Частота : 48,0 КГц
Частота кадров : 31,250 кадров/сек (1536 SPF)
Битовая глубина : 16 бит
Метод сжатия : С потерями
Размер потока : 210 Мбайт (14%)
Заголовок : Кубик в Кубе
Язык : Russian
ServiceKind/String : Complete Main
Default : Да
Forced : Нет

Аудио #2
Идентификатор : 2
Формат : AC-3
Формат/Информация : Audio Coding 3
Идентификатор кодека : A_AC3
Продолжительность : 1 ч. 16 м.
Вид битрейта : Постоянный
Битрейт : 384 Кбит/сек
Каналы : 6 каналов
Расположение каналов : Front: L C R, Side: L R, LFE
Частота : 48,0 КГц
Частота кадров : 31,250 кадров/сек (1536 SPF)
Битовая глубина : 16 бит
Метод сжатия : С потерями
Размер потока : 210 Мбайт (14%)
Язык : English
ServiceKind/String : Complete Main
Default : Нет
Forced : Нет

Текст
Идентификатор : 3
Формат : UTF-8
Идентификатор кодека : S_TEXT/UTF8
Идентификатор кодека/Информация : UTF-8 Plain Text
Продолжительность : 1 ч. 14 м.
Битрейт : 69 бит/сек
ElementCount : 1179
Размер потока : 37,7 Кбайт (0%)
Заголовок : Субтитры
Язык : English
Default : Нет
Forced : Нет
Семпл: http://multi-up.com/1181874

picpicpicpic
Для увеличения картинки щелкните мышкой по превью

Этот торрент недоступен для скачивания без регистрации, однако доступен по публичной magnet-ссылке (источники с публичных трекеров). Перед использованием ссылки прочтите, пожалуйста Пользовательское соглашение, а также как можно дольше оставайтесь на раздаче! Для того, чтобы скачать сам торрент-файл (который видит больше источников), а также для того, чтобы поблагодарить релизера, вам необходимо зарегистрироваться. Если регистрироваться лень - вы можете также попробовать скачать релиз по нашим партнерским ссылкам ниже. Кроме того, зарегистрированным пользователям не показывается всплывающая реклама при скачивании.

[underverse.me].t94432.torrent
Трекер: Зарегистрирован   [ 07.01.2018 15:53 ]  

Статус: * не проверено
Поблагодарили: 1 человек
Тип торрента: публичный - доступные источники с открытых трекеров: 
Размер: 2,54 GB (занимает 0,58 DVDR, для записи нужно 1 болванка DVDR/RW)
 
 
Похожие темы
Форум Тема Автор Торрент Отв. Посл. сооб.
Зарубежные сериалы [BD / Remux / BDRip / WEB-DL / HDTV 1080/720р] Черное зеркало / Black mirror / Cезон 1 /Серии 1-3 (3) ( Отто Баферст, Эрос Лин, Брайан Уэлш, Оуэн Харрис, Карл Тиббеттс) [2011 г., Драма, фантастика, триллер, WEBDLRip 720p] MVO + Original Чертёнок
2 | 0

1 | 1856

60

25.01.2014 16:38

Зарубежные сериалы [BD / Remux / BDRip / WEB-DL / HDTV 1080/720р] Черное зеркало / Black mirror / Сезон 2 / Серии 1-3 (3) (Отто Баферст, Эрос Лин, Брайан Уэлш, Оуэн Харис, арл Тиббеттс) [2013 г., Драма, фантастика, триллер, HDTVRip 720p] MVO + Original Чертёнок
6 | 5

0 | 1846

59

28.02.2013 23:03

Зарубежные сериалы [BD / Remux / BDRip / WEB-DL / HDTV 1080/720р] Черное зеркало / Black Mirror / Сезон: 3 / Серии: 1-6 из 6 (Оуэн Харрис, Карл Тиббеттс, Отто Баферст) [2016 г., фантастика, триллер, драма, WEBRip 720p] MVO (NewStudio) + Original + Subs (Rus, Eng) Паукан
50 | 26

0 | 1930

28

29.12.2016 22:34

Архив (Adventure / Quest) Черное зеркало 3 / Black Mirror 3 (2011 г., Adventure) [R] [RUS\ENG] THE_MECHANIC
0 | 0

7 | 1346

17

31.01.2018 21:29


Яндекс.Метрика powered by Sphinx


В Н И М А Н И Е
Сайт не распространяет и не хранит электронные версии произведений, а лишь бесплатно и без коммерческой выгоды (не требуя взамен платы,
SMS и т.д.) предоставляет доступ к создаваемому пользователями каталогу ссылок на торрент-файлы, которые содержат только списки хеш-сумм.
Убедительная просьба с жалобами обращаться напрямую к пользователю, разместившему торрент файл.

Вверх