Loading...
Error

Культ Чаки / Cult of Chucky (Дон Манчини) [2017 г., ужасы, BD-Remux] Dub + Original + Sub

Статистика раздачи
Размер:  19,93 GB   |    Зарегистрирован:  5 месяцев   |    Скачан:  3 раза

Полного источника не было: 4 месяца 15 дней

Сидов:  0  |  0 KB/s  ]   Личеров:  0  |  0 KB/s  ]

* - сиды/пиры с внешних источников

   
 
Автор Сообщение

makkol Пол:Муж

23-Дек-2017 11:10

Культ Чаки / Cult of Chucky


Год выпуска: 2017
Жанр: ужасы
Производство: США [Indie Entertainment]
Режиссер: Дон Манчини
В ролях: Дженнифер Тилли, Фиона Дуриф, Брэд Дуриф, Алекс Винсент, Майкл Терриоль, Элизабет Розен, Зак Сантьяго, Грэйс Линн Кунг, Али Татарин, Саммер Х. Хауэлл
Сюжет фильма:
Ника Пирс 4 года провела в лечебнице. Ее убеждают в том, что она виновна в гибели семьи, а не кукла Чаки. Когда лечащий врач предлагает новый вариант терапии с куклой с добрым лицом, в лечебнице начинают погибать люди, и Ника начинает думать, что ее кошмары реальны. Энди Барклай повзрослел и спешит на помощь, но ему хочет помешать Тиффани — невеста Чаки, готовая на все, чтобы помочь возлюбленному.

  • Мировая премьера: 24 августа 2017


Качество видео: BD-Remux

Продолжительность: 01:30:56
Формат: MKV
Видео: MPEG-4 AVC, 1920x1080 (16:9), 23.976 fps, 27.2 Mbps
Аудио #1: русский, дублированный (лицензия), DTS 5.1, 48 kHz, 768 kbps
Аудио #2: английский, оригинал, DTS-HD MA 5.1, 48 kHz, 3408 kbps
Субтитры: русские (форс.+полные), английские вшитые отключаемые

Код:

Format : Matroska
Format version : Version 4 / Version 2
File size : 19.9 GiB
Duration : 1 h 30 min
Overall bit rate mode : Variable
Overall bit rate : 31.4 Mb/s
Encoded date : UTC 2017-12-23 07:44:17
Writing application : mkvmerge v19.0.0 ('Brave Captain') 64-bit
Writing library : libebml v1.3.5 + libmatroska v1.4.8

Video
ID : 1
Format : AVC
Format/Info : Advanced Video Codec
Format profile : High@L4.1
Format settings : CABAC / 2 Ref Frames
Format settings, CABAC : Yes
Format settings, ReFrames : 2 frames
Codec ID : V_MPEG4/ISO/AVC
Duration : 1 h 30 min
Bit rate mode : Variable
Bit rate : 27.2 Mb/s
Width : 1 920 pixels
Height : 1 080 pixels
Display aspect ratio : 16:9
Frame rate mode : Constant
Frame rate : 23.976 (24000/1001) FPS
Color space : YUV
Chroma subsampling : 4:2:0
Bit depth : 8 bits
Scan type : Progressive
Bits/(Pixel*Frame) : 0.547
Stream size : 17.3 GiB (87%)
Language : English
Default : Yes
Forced : No

Audio #1
ID : 2
Format : DTS
Format/Info : Digital Theater Systems
Codec ID : A_DTS
Duration : 1 h 30 min
Bit rate mode : Constant
Bit rate : 768 kb/s
Channel(s) : 6 channels
Channel positions : Front: L C R, Side: L R, LFE
Sampling rate : 48.0 kHz
Frame rate : 93.750 FPS (512 SPF)
Bit depth : 24 bits
Compression mode : Lossy
Stream size : 500 MiB (2%)
Title : Dub [License]
Language : Russian
Default : Yes
Forced : No

Audio #2
ID : 3
Format : DTS
Format/Info : Digital Theater Systems
Format profile : MA / Core
Codec ID : A_DTS
Duration : 1 h 30 min
Bit rate mode : Variable / Constant
Bit rate : 3 408 kb/s / 1 509 kb/s
Channel(s) : 6 channels
Channel positions : Front: L C R, Side: L R, LFE
Sampling rate : 48.0 kHz
Frame rate : 93.750 FPS (512 SPF)
Bit depth : 24 bits
Compression mode : Lossless / Lossy
Stream size : 2.16 GiB (11%)
Title : Original
Language : English
Default : No
Forced : No

Text #1
ID : 4
Format : UTF-8
Codec ID : S_TEXT/UTF8
Codec ID/Info : UTF-8 Plain Text
Duration : 1 h 27 min
Bit rate : 1 b/s
Count of elements : 20
Stream size : 958 Bytes (0%)
Title : Forced
Language : Russian
Default : Yes
Forced : No

Text #2
ID : 5
Format : UTF-8
Codec ID : S_TEXT/UTF8
Codec ID/Info : UTF-8 Plain Text
Duration : 1 h 30 min
Bit rate : 51 b/s
Count of elements : 860
Stream size : 34.0 KiB (0%)
Title : Full
Language : Russian
Default : No
Forced : No

Text #3
ID : 6
Format : UTF-8
Codec ID : S_TEXT/UTF8
Codec ID/Info : UTF-8 Plain Text
Duration : 1 h 29 min
Bit rate : 36 b/s
Count of elements : 903
Stream size : 23.7 KiB (0%)
Title : Full
Language : English
Default : No
Forced : No

Menu
00:00:00.000 : en:Chapter 1
00:02:36.573 : en:Chapter 2
00:07:26.571 : en:Chapter 3
00:11:59.260 : en:Chapter 4
00:15:36.852 : en:Chapter 5
00:19:20.450 : en:Chapter 6
00:25:09.007 : en:Chapter 7
00:29:37.817 : en:Chapter 8
00:33:01.729 : en:Chapter 9
00:38:30.891 : en:Chapter 10
00:46:01.133 : en:Chapter 11
00:51:16.948 : en:Chapter 12
00:56:06.029 : en:Chapter 13
01:01:22.470 : en:Chapter 14
01:08:10.878 : en:Chapter 15
01:12:07.781 : en:Chapter 16
01:17:08.665 : en:Chapter 17
01:21:58.163 : en:Chapter 18
01:24:33.485 : en:Chapter 19
01:26:59.714 : en:Chapter 20
Релиз:

picpicpicpicpic
Для увеличения картинки щелкните мышкой по превью

Этот торрент недоступен для скачивания без регистрации, однако доступен по публичной magnet-ссылке (источники с публичных трекеров). Перед использованием ссылки прочтите, пожалуйста Пользовательское соглашение, а также как можно дольше оставайтесь на раздаче! Для того, чтобы скачать сам торрент-файл (который видит больше источников), а также для того, чтобы поблагодарить релизера, вам необходимо зарегистрироваться. Если регистрироваться лень - вы можете также попробовать скачать релиз по нашим партнерским ссылкам ниже. Кроме того, зарегистрированным пользователям не показывается всплывающая реклама при скачивании.

[underverse.me].t93511.torrent
Трекер: Зарегистрирован   [ 23.12.2017 11:10 ]  

Статус: проверено (by makkol at 23.12.2017 11:11)
Поблагодарили: пока никто не поблагодарил...
Тип торрента: публичный - доступные источники с открытых трекеров: 
Размер: 19,93 GB (занимает 4,55 DVDR, для записи нужно 5 болванок DVDR/RW)
 
 
Похожие темы
Форум Тема Автор Торрент Отв. Посл. сооб.
Зарубежное кино [DVDRip, Low-Res HDRip, и т.д.] Культ Чаки / Cult of Chucky (Дон Манчини) [2017 г., ужасы, BDRip-AVC] Dub + MVO + Original + Sub makkol
9 | 3

0 | 337

2

23.12.2017 10:58

Зарубежное кино [DVDRip, Low-Res HDRip, и т.д.] Культ Чаки / Cult of Chucky (Дон Манчини) [2017 г., ужасы, DVDRip] VO (Xixidok) makkol
11 | 3

0 | 406

4

25.09.2017 21:42

T Зарубежное кино [DVDRip, Low-Res HDRip, и т.д.] Культ Чаки / Cult of Chucky (Дон Манчини) [2017 г., ужасы, DVDRip] MVO (@MUZOBOZ@) makkol
1 | 2

0 | 400

12

25.09.2017 21:50

Зарубежное кино [DVDRip, Low-Res HDRip, и т.д.] Культ Чаки / Cult of Chucky (Дон Манчини) [2017 г., ужасы, BDRip] Dub makkol
46 | 2

1 | 321

4

23.12.2017 10:47

* Зарубежное кино [DVDRip, Low-Res HDRip, и т.д.] Культ Чаки / Cult of Chucky (Дон Манчини / Don Mancini) [2017 г., ужасы, триллер, BDRip-AVC] Dub + Sub (Rus) 90ytr90
1 | 0

0 | 140

1

06.03.2018 08:23

* Зарубежное кино [DVD / HDDVD / BD / Remux] Культ Чаки / Cult of Chucky (Дон Манчини) [2017 г., ужасы, триллер, BD CEE 1080p] Dub 90ytr90
0 | 2

0 | 126

0

06.03.2018 08:19

Зарубежное кино [HDDVDRip / BDRip / WEB-DL / HDTV 1080/720р] Культ Чаки / Cult of Chucky (Дон Манчини) [2017 г., ужасы, BDRip 720p] Dub + MVO (ViruseProject) + MVO (Saint-Sound) + VO (Xixidok) + Original makkol
3 | 6

0 | 410

1

23.12.2017 22:19


Яндекс.Метрика powered by Sphinx


В Н И М А Н И Е
Сайт не распространяет и не хранит электронные версии произведений, а лишь бесплатно и без коммерческой выгоды (не требуя взамен платы,
SMS и т.д.) предоставляет доступ к создаваемому пользователями каталогу ссылок на торрент-файлы, которые содержат только списки хеш-сумм.
Убедительная просьба с жалобами обращаться напрямую к пользователю, разместившему торрент файл.

Вверх