Loading...
Error

Тюльпанная лихорадка / Tulip Fever (Джастин Чадвик) [2017 г., драма, мелодрама, BD-Remux] Dub (iTunes) + Original

Статистика раздачи
Размер:  18,61 GB   |    Зарегистрирован:  5 месяцев 23 дня   |    Скачан:  8 раз

Полного источника не было: 1 месяц 6 дней

Сидов:  0  |  0 KB/s  ]   Личеров:  0  |  0 KB/s  ]

* - сиды/пиры с внешних источников

   
 
Автор Сообщение

makkol Пол:Муж

29-Ноя-2017 13:43

Тюльпанная лихорадка / Tulip Fever


Год выпуска: 2017
Жанр: драма, мелодрама
Производство: Великобритания , США [Paramount Pictures, Ruby Films, Worldview Entertainment]
Режиссер: Джастин Чадвик
В ролях: Алисия Викандер, Дэйн ДеХаан, Кристоф Вальц, Зак Галифианакис, Джуди Денч, Холлидей Грейнджер, Джек О’Коннелл, Мэттью Моррисон, Кара Делевинь, Том Холландер
Сюжет фильма:
Голландия, 17 век. Луковицы прекрасных цветов становятся причиной баснословного богатства или унизительной нищеты. Жители Амстердама готовы ради них на все: обман, подлог... и даже убийство. В атмосфере всеобщей тюльпаномании страсть бедного художника к молодой обольстительной жене стареющего богатого торговца может завести очень далеко.

  • Мировая премьера: 13 июля 2017
  • Российская премьера: 24 августа 2017


Качество видео: BD-Remux

Продолжительность: 01:44:50
Формат: MKV
Видео: MPEG-4 AVC, 1920x1080 (16:9), 23.976 fps, 21.2 Mbps
Аудио #1: русский, дублированный (iTunes), AC3 5.1, 48 kHz, 384 kbps
Аудио #2: английский, оригинал, DTS-HD MA 5.1, 48 kHz, 3840 kbps
Субтитры: английские вшитые отключаемые

Код:

Формат : Matroska
Версия формата : Version 4 / Version 2
Размер файла : 18,6 Гбайт
Продолжительность : 1 ч. 44 м.
Режим общего битрейта : Переменный
Общий поток : 25,4 Мбит/сек
Название фильма : Тюльпанная лихорадка (2017)
Дата кодирования : UTC 2017-11-28 23:00:52
Программа кодирования : mkvmerge v9.7.1 ('Pandemonium') 64bit
Библиотека кодирования : libebml v1.3.4 + libmatroska v1.4.5

Видео
Идентификатор : 1
Формат : AVC
Формат/Информация : Advanced Video Codec
Профиль формата : High@L4.1
Параметр CABAC формата : Да
Параметр ReFrames формата : 3 кадра
Параметр GOP формата : M=3, N=12
Идентификатор кодека : V_MPEG4/ISO/AVC
Продолжительность : 1 ч. 44 м.
Вид битрейта : Переменный
Битрейт : 21,2 Мбит/сек
Максимальный битрейт : 35,0 Мбит/сек
Ширина : 1920 пикселей
Высота : 1080 пикселей
Соотношение сторон : 16:9
Режим частоты кадров : Постоянный
Частота кадров : 23,976 (24000/1001) кадра/сек
Стандарт вещания : NTSC
Цветовое пространство : YUV
Субдискретизация насыщенности : 4:2:0
Битовая глубина : 8 бит
Тип развёртки : Прогрессивная
Бит/(Пиксели*Кадры) : 0.427
Размер потока : 15,5 Гбайт (83%)
Default : Да
Forced : Нет
Цветовой диапазон : Limited
Основные цвета : BT.709
Характеристики трансфера : BT.709
Коэффициенты матрицы : BT.709

Аудио #1
Идентификатор : 2
Формат : AC-3
Формат/Информация : Audio Coding 3
Параметр Endianness формата : Big
Идентификатор кодека : A_AC3
Продолжительность : 1 ч. 44 м.
Вид битрейта : Постоянный
Битрейт : 384 Кбит/сек
Каналы : 6 каналов
Расположение каналов : Front: L C R, Side: L R, LFE
Частота : 48,0 КГц
Частота кадров : 31,250 кадров/сек (1536 spf)
Битовая глубина : 16 бит
Метод сжатия : С потерями
Размер потока : 288 Мбайт (2%)
Заголовок : iTunes
Язык : Russian
Default : Да
Forced : Нет

Аудио #2
Идентификатор : 3
Формат : DTS
Формат/Информация : Digital Theater Systems
Профиль формата : MA / Core
Режим : 16
Параметр Endianness формата : Big
Идентификатор кодека : A_DTS
Продолжительность : 1 ч. 44 м.
Вид битрейта : Переменный / Постоянный
Битрейт : 3840 Кбит/сек / 1509 Кбит/сек
Каналы : 6 каналов
Расположение каналов : Front: L C R, Side: L R, LFE
Частота : 48,0 КГц
Частота кадров : 93,750 кадра/сек (512 spf)
Битовая глубина : 24 бит
Метод сжатия : Без потерь / Lossy
Размер потока : 2,80 Гбайт (15%)
Язык : English
Default : Нет
Forced : Нет

Текст #1
Идентификатор : 4
Формат : UTF-8
Идентификатор кодека : S_TEXT/UTF8
Идентификатор кодека/Информация : UTF-8 Plain Text
Продолжительность : 1 ч. 43 м.
Битрейт : 47 бит/сек
ElementCount : 1382
Размер потока : 36,2 Кбайт (0%)
Язык : English
Default : Нет
Forced : Нет

Текст #2
Идентификатор : 5
Формат : UTF-8
Идентификатор кодека : S_TEXT/UTF8
Идентификатор кодека/Информация : UTF-8 Plain Text
Продолжительность : 1 ч. 44 м.
Битрейт : 57 бит/сек
ElementCount : 1688
Размер потока : 43,9 Кбайт (0%)
Заголовок : SDH
Язык : English
Default : Нет
Forced : Нет

Текст #3
Идентификатор : 6
Формат : UTF-8
Идентификатор кодека : S_TEXT/UTF8
Идентификатор кодека/Информация : UTF-8 Plain Text
Продолжительность : 1 ч. 44 м.
Битрейт : 77 бит/сек
ElementCount : 1688
Размер потока : 59,1 Кбайт (0%)
Заголовок : SDH-Colored
Язык : English
Default : Нет
Forced : Нет

Меню
00:00:00.000 : en:00:00:00.000
00:03:33.130 : en:00:03:33.130
00:08:58.204 : en:00:08:58.204
00:14:48.304 : en:00:14:48.304
00:20:30.563 : en:00:20:30.563
00:26:29.421 : en:00:26:29.421
00:33:44.648 : en:00:33:44.648
00:39:13.935 : en:00:39:13.935
00:45:54.293 : en:00:45:54.293
00:51:56.697 : en:00:51:56.697
00:58:29.339 : en:00:58:29.339
01:05:36.766 : en:01:05:36.766
01:11:57.104 : en:01:11:57.104
01:18:23.657 : en:01:18:23.657
01:23:05.480 : en:01:23:05.480
01:27:29.619 : en:01:27:29.619
01:32:55.361 : en:01:32:55.361
01:37:29.802 : en:01:37:29.802
picpicpicpicpic
Для увеличения картинки щелкните мышкой по превью

Этот торрент недоступен для скачивания без регистрации, однако доступен по публичной magnet-ссылке (источники с публичных трекеров). Перед использованием ссылки прочтите, пожалуйста Пользовательское соглашение, а также как можно дольше оставайтесь на раздаче! Для того, чтобы скачать сам торрент-файл (который видит больше источников), а также для того, чтобы поблагодарить релизера, вам необходимо зарегистрироваться. Если регистрироваться лень - вы можете также попробовать скачать релиз по нашим партнерским ссылкам ниже. Кроме того, зарегистрированным пользователям не показывается всплывающая реклама при скачивании.

[underverse.me].t92115.torrent
Трекер: Зарегистрирован   [ 29.11.2017 13:43 ]  

Статус: T временная (by makkol at 29.11.2017 13:44)
Поблагодарили: пока никто не поблагодарил...
Тип торрента: публичный - доступные источники с открытых трекеров: 
Размер: 18,61 GB (занимает 4,25 DVDR, для записи нужно 5 болванок DVDR/RW)
 
 
Похожие темы
Форум Тема Автор Торрент Отв. Посл. сооб.
Зарубежное кино [DVDRip, Low-Res HDRip, и т.д.] Тюльпанная лихорадка / Tulip Fever (Джастин Чадвик / Justin Chadwick) [2017 г., драма, мелодрама, BDRip] Dub 90ytr90
204 | 6

0 | 390

9

08.03.2018 18:01

Зарубежное кино [DVDRip, Low-Res HDRip, и т.д.] Тюльпанная лихорадка / Tulip Fever (Джастин Чадвик / Justin Chadwick) [2017 г., драма, мелодрама, BDRip-AVC] Dub + Original (Eng) + Sub (Rus, Eng) 90ytr90
18 | 4

0 | 343

4

08.03.2018 18:25

Зарубежное кино [DVDRip, Low-Res HDRip, и т.д.] Тюльпанная лихорадка / Tulip Fever (Джастин Чадвик / Justin Chadwick) [2017 г., драма, мелодрама, BDRip-AVC] Dub + Sub (Rus) 90ytr90
1 | 0

0 | 421

11

08.03.2018 18:34

Зарубежное кино [DVD / HDDVD / BD / Remux] Тюльпанная лихорадка / Tulip Fever (Джастин Чадвик / Justin Chadwick) [2017 г., драма, мелодрама, BD 1080p] [RUS Transfer] Dub 90ytr90
1 | 3

0 | 381

0

08.03.2018 17:54

Зарубежное кино [HDDVDRip / BDRip / WEB-DL / HDTV 1080/720р] Тюльпанная лихорадка / Tulip Fever (Джастин Чадвик / Justin Chadwick) [2017 г., драма, мелодрама, BDRip 1080p] Dub + Original (Eng) + Sub (Eng) 90ytr90
41 | 5

0 | 346

5

08.03.2018 18:06

Зарубежное кино [HDDVDRip / BDRip / WEB-DL / HDTV 1080/720р] Тюльпанная лихорадка / Tulip Fever (Джастин Чадвик / Justin Chadwick) [2017 г., драма, мелодрама, BDRip 720p] Dub + Original (Eng) + Sub (Eng) 90ytr90
1 | 3

0 | 302

2

08.03.2018 18:09

Зарубежное кино [HDDVDRip / BDRip / WEB-DL / HDTV 1080/720р] Тюльпанная лихорадка / Tulip Fever (Джастин Чадвик / Justin Chadwick) [2017 г., драма, мелодрама, BDRip 720p] Dub + Original (Eng) + Sub (Eng) 90ytr90
47 | 3

0 | 359

8

08.03.2018 18:13


Яндекс.Метрика powered by Sphinx


В Н И М А Н И Е
Сайт не распространяет и не хранит электронные версии произведений, а лишь бесплатно и без коммерческой выгоды (не требуя взамен платы,
SMS и т.д.) предоставляет доступ к создаваемому пользователями каталогу ссылок на торрент-файлы, которые содержат только списки хеш-сумм.
Убедительная просьба с жалобами обращаться напрямую к пользователю, разместившему торрент файл.

Вверх