Loading...
Error

Роковое искушение / The Beguiled (София Коппола) [2017 г., драма, BD-Remux] Dub + Original + Sub

Статистика раздачи
Размер:  23,72 GB   |    Зарегистрирован:  5 месяцев 26 дней   |    Скачан:  5 раз

Полного источника не было: 22 дня

Сидов:  0  |  0 KB/s  ]   Личеров:  0  |  0 KB/s  ]

* - сиды/пиры с внешних источников

   
 
Автор Сообщение

makkol Пол:Муж

25-Ноя-2017 13:03

Роковое искушение / The Beguiled


Год выпуска: 2017
Жанр: драма
Производство: США [American Zoetrope, FR Productions]
Режиссер: София Коппола
В ролях: Колин Фаррелл, Николь Кидман, Кирстен Данст, Элль Фэннинг, Уна Лоуренс, Энгаури Райс, Эддисон Рики, Эмма Ховард, Уэйн Пер, Мэтт Стори
Сюжет фильма:
Закрытый пансион для девушек был надежно спрятан от внешнего мира до того дня, пока искавший помощи и укрытия молодой человек не ступил за его ворота. С этого мгновения таинственный особняк оказался в плену рокового искушения...

  • Мировая премьера: 24 мая 2017
  • Российская премьера: 27 июля 2017


Качество видео: BD-Remux

Продолжительность: 01:33:08
Формат: MKV
Видео: MPEG-4 AVC, 1920x1080 (16:9), 23.976 fps, 31.8 Mbps
Аудио #1: русский, дублированный (лицензия BD EUR), DTS 5.1, 48 kHz, 768 kbps
Аудио #2: русский, дублированный (лицензия BD EUR), AC3 5.1, 48 kHz, 448 kbps
Аудио #3: английский, оригинал, DTS-HD MA 5.1, 48 kHz, 3398 kbps
Субтитры: русские (форс. + полные), английские вшитые отключаемые

Код:

Формат : Matroska
Версия формата : Version 4 / Version 2
Размер файла : 23,7 Гбайт
Продолжительность : 1 ч. 33 м.
Режим общего битрейта : Переменный
Общий поток : 36,5 Мбит/сек
Название фильма : Роковое искушение (2017)
Дата кодирования : UTC 2017-11-23 08:41:09
Программа кодирования : mkvmerge v9.7.1 ('Pandemonium') 64bit
Библиотека кодирования : libebml v1.3.4 + libmatroska v1.4.5

Видео
Идентификатор : 1
Формат : AVC
Формат/Информация : Advanced Video Codec
Профиль формата : High@L4.1
Параметр CABAC формата : Да
Параметр ReFrames формата : 4 кадра
Идентификатор кодека : V_MPEG4/ISO/AVC
Продолжительность : 1 ч. 33 м.
Вид битрейта : Переменный
Битрейт : 31,8 Мбит/сек
Максимальный битрейт : 35,0 Мбит/сек
Ширина : 1920 пикселей
Высота : 1080 пикселей
Соотношение сторон : 16:9
Режим частоты кадров : Постоянный
Частота кадров : 23,976 (24000/1001) кадра/сек
Цветовое пространство : YUV
Субдискретизация насыщенности : 4:2:0
Битовая глубина : 8 бит
Тип развёртки : Прогрессивная
Бит/(Пиксели*Кадры) : 0.641
Размер потока : 20,7 Гбайт (87%)
Язык : English
Default : Нет
Forced : Нет

Аудио #1
Идентификатор : 2
Формат : DTS
Формат/Информация : Digital Theater Systems
Режим : 16
Параметр Endianness формата : Big
Идентификатор кодека : A_DTS
Продолжительность : 1 ч. 33 м.
Вид битрейта : Постоянный
Битрейт : 768 Кбит/сек
Каналы : 6 каналов
Расположение каналов : Front: L C R, Side: L R, LFE
Частота : 48,0 КГц
Частота кадров : 93,750 кадра/сек (512 spf)
Битовая глубина : 24 бит
Метод сжатия : С потерями
Размер потока : 512 Мбайт (2%)
Заголовок : Blu-ray EUR
Язык : Russian
Default : Да
Forced : Нет

Аудио #2
Идентификатор : 3
Формат : AC-3
Формат/Информация : Audio Coding 3
Параметр Endianness формата : Big
Идентификатор кодека : A_AC3
Продолжительность : 1 ч. 33 м.
Вид битрейта : Постоянный
Битрейт : 448 Кбит/сек
Каналы : 6 каналов
Расположение каналов : Front: L C R, Side: L R, LFE
Частота : 48,0 КГц
Частота кадров : 31,250 кадров/сек (1536 spf)
Битовая глубина : 16 бит
Метод сжатия : С потерями
Размер потока : 298 Мбайт (1%)
Заголовок : Blu-ray EUR
Язык : Russian
Default : Нет
Forced : Нет

Аудио #3
Идентификатор : 4
Формат : DTS
Формат/Информация : Digital Theater Systems
Профиль формата : MA / Core
Режим : 16
Параметр Endianness формата : Big
Идентификатор кодека : A_DTS
Продолжительность : 1 ч. 33 м.
Вид битрейта : Переменный / Постоянный
Битрейт : 3398 Кбит/сек / 1509 Кбит/сек
Каналы : 6 каналов
Расположение каналов : Front: L C R, Side: L R, LFE
Частота : 48,0 КГц
Частота кадров : 93,750 кадра/сек (512 spf)
Битовая глубина : 24 бит
Метод сжатия : Без потерь / Lossy
Размер потока : 2,21 Гбайт (9%)
Язык : English
Default : Нет
Forced : Нет

Текст #1
Идентификатор : 5
Формат : UTF-8
Идентификатор кодека : S_TEXT/UTF8
Идентификатор кодека/Информация : UTF-8 Plain Text
Продолжительность : 23 м. 17 с.
Битрейт : 1 бит/сек
ElementCount : 5
Размер потока : 188 байт (0%)
Заголовок : Forc
Язык : Russian
Default : Да
Forced : Нет

Текст #2
Идентификатор : 6
Формат : UTF-8
Идентификатор кодека : S_TEXT/UTF8
Идентификатор кодека/Информация : UTF-8 Plain Text
Продолжительность : 1 ч. 26 м.
Битрейт : 68 бит/сек
ElementCount : 1091
Размер потока : 43,2 Кбайт (0%)
Заголовок : Full
Язык : Russian
Default : Нет
Forced : Нет

Текст #3
Идентификатор : 7
Формат : UTF-8
Идентификатор кодека : S_TEXT/UTF8
Идентификатор кодека/Информация : UTF-8 Plain Text
Продолжительность : 1 ч. 24 м.
Битрейт : 53 бит/сек
ElementCount : 1135
Размер потока : 33,5 Кбайт (0%)
Язык : English
Default : Нет
Forced : Нет

Текст #4
Идентификатор : 8
Формат : UTF-8
Идентификатор кодека : S_TEXT/UTF8
Идентификатор кодека/Информация : UTF-8 Plain Text
Продолжительность : 1 ч. 30 м.
Битрейт : 58 бит/сек
ElementCount : 1321
Размер потока : 38,3 Кбайт (0%)
Заголовок : SDH
Язык : English
Default : Нет
Forced : Нет

Меню
00:00:00.000 : en:Chapter 1
00:05:49.641 : en:Chapter 2
00:09:24.439 : en:Chapter 3
00:13:35.982 : en:Chapter 4
00:18:02.248 : en:Chapter 5
00:24:52.199 : en:Chapter 6
00:31:00.650 : en:Chapter 7
00:34:20.725 : en:Chapter 8
00:41:45.461 : en:Chapter 9
00:44:20.950 : en:Chapter 10
00:48:38.165 : en:Chapter 11
00:54:47.367 : en:Chapter 12
01:00:50.772 : en:Chapter 13
01:04:36.956 : en:Chapter 14
01:11:04.844 : en:Chapter 15
01:13:30.489 : en:Chapter 16
01:16:26.665 : en:Chapter 17
01:21:33.472 : en:Chapter 18
01:26:06.286 : en:Chapter 19
01:29:22.732 : en:Chapter 20
picpicpicpicpic
Для увеличения картинки щелкните мышкой по превью

Этот торрент недоступен для скачивания без регистрации, однако доступен по публичной magnet-ссылке (источники с публичных трекеров). Перед использованием ссылки прочтите, пожалуйста Пользовательское соглашение, а также как можно дольше оставайтесь на раздаче! Для того, чтобы скачать сам торрент-файл (который видит больше источников), а также для того, чтобы поблагодарить релизера, вам необходимо зарегистрироваться. Если регистрироваться лень - вы можете также попробовать скачать релиз по нашим партнерским ссылкам ниже. Кроме того, зарегистрированным пользователям не показывается всплывающая реклама при скачивании.

[underverse.me].t91981.torrent
Трекер: Зарегистрирован   [ 25.11.2017 13:03 ]  

Статус: проверено (by makkol at 25.11.2017 13:04)
Поблагодарили: пока никто не поблагодарил...
Тип торрента: публичный - доступные источники с открытых трекеров: 
Размер: 23,72 GB (занимает 5,42 DVDR, для записи нужно 6 болванок DVDR/RW)
 
 
Похожие темы
Форум Тема Автор Торрент Отв. Посл. сооб.
T Зарубежное кино [DVDRip, Low-Res HDRip, и т.д.] Роковое искушение / The Beguiled (София Коппола) [2017 г., драма, WEB-DLRip] MVO (@MUZOBOZ@) makkol
21 | 2

0 | 494

15

28.09.2017 13:58

Зарубежное кино [DVDRip, Low-Res HDRip, и т.д.] Роковое искушение / The Beguiled (София Коппола) [2017 г., драма, BDRip] Dub makkol
635 | 18

0 | 614

24

23.11.2017 12:22

Зарубежное кино [DVDRip, Low-Res HDRip, и т.д.] Роковое искушение / The Beguiled (София Коппола / Sofia Coppola) [2017 г., драма, военный, BDRip-AVC] Dub + Sub (Rus) 90ytr90
19 | 3

0 | 319

7

16.12.2017 18:55

T Зарубежное кино [HDDVDRip / BDRip / WEB-DL / HDTV 1080/720р] Роковое искушение / The Beguiled (София Коппола) [2017 г., драма, WEB-DL 1080p] MVO (@MUZOBOZ@) makkol
6 | 1

0 | 480

18

28.09.2017 14:07

Зарубежное кино [HDDVDRip / BDRip / WEB-DL / HDTV 1080/720р] Роковое искушение / The Beguiled (София Коппола) [2017 г., драма, BDRip 1080p] Dub + Original + Sub makkol
46 | 3

0 | 526

16

23.11.2017 12:34

Зарубежное кино [HDDVDRip / BDRip / WEB-DL / HDTV 1080/720р] Роковое искушение / The Beguiled (София Коппола) [2017 г., драма, BDRip 720p] Dub + Original + Sub makkol
39 | 3

0 | 501

6

25.11.2017 12:53

Зарубежное кино [HDDVDRip / BDRip / WEB-DL / HDTV 1080/720р] Роковое искушение / The Beguiled (София Коппола / Sofia Coppola) [2017 г., драма, военный, BDRip 720p] Dub + Original (Eng) + Sub (Rus, Eng) 90ytr90
34 | 3

0 | 316

6

16.12.2017 19:03


Яндекс.Метрика powered by Sphinx


В Н И М А Н И Е
Сайт не распространяет и не хранит электронные версии произведений, а лишь бесплатно и без коммерческой выгоды (не требуя взамен платы,
SMS и т.д.) предоставляет доступ к создаваемому пользователями каталогу ссылок на торрент-файлы, которые содержат только списки хеш-сумм.
Убедительная просьба с жалобами обращаться напрямую к пользователю, разместившему торрент файл.

Вверх