Loading...
Error

Малыш на драйве / Baby Driver (Эдгар Райт) [2017 г., боевик, триллер, криминал, музыка, BD-Remux] Dub + MVO (Paradox & Omskbird records) + Original + Sub

Статистика раздачи
Размер:  22,42 GB   |    Зарегистрирован:  6 месяцев   |    Скачан:  5 раз

Полного источника не было: 9 дней

Сидов:  0  |  0 KB/s  ]   Личеров:  0  |  0 KB/s  ]

* - сиды/пиры с внешних источников

   
 
Автор Сообщение

makkol Пол:Муж

08-Ноя-2017 14:50

Малыш на драйве / Baby Driver
«Сколько треков нужно для хорошего ограбления?»


Год выпуска: 2017
Жанр: боевик, триллер, криминал, музыка
Производство: Великобритания , США [Big Talk Productions, Double Negative, Media Rights Capital, TriStar Pictures, Working Title Films]
Режиссер: Эдгар Райт
В ролях: Энсел Элгорт, Джон Бернтал, Джон Хэмм, Эйса Гонсалес, Micah Howard, Лили Джеймс, Морган Браун, Кевин Спейси, Morse Diggs, С.Дж. Джонс
Сюжет фильма:
Молодой парень по прозвищу Малыш обожает стильную музыку, быструю езду и адреналин в крови. Вся его жизнь — это сплошные погони и перестрелки, ведь он работает водителем, который помогает бандитам скрыться с места преступления. Однажды он по-настоящему влюбляется и решает выйти из игры, но сначала ему предстоит выполнить еще одно задание, которое вполне может оказаться последним в его жизни.

  • Мировая премьера: 11 марта 2017
  • Российская премьера: 24 августа 2017


Качество видео: BD-Remux

Продолжительность: 01:52:39
Формат: MKV
Видео: MPEG-4 AVC, 1920x1080 (16:9), 23.976 fps, 24.9 Mbps
Аудио #1: русский, дублированный (лицензия BD EUR), AC3 5.1, 48 kHz, 640 kbps
Аудио #2: русский, любительский многоголосый закадровый (Paradox & Omskbird records), AC3 2.0, 48 kHz, 384 kbps [ненормативная лексика]
Аудио #3: английский, оригинал, DTS-HD MA 5.1, 48 kHz, 2352 kbps
Аудио #4: английский, commentary by Writer Director Edgar Wright, AC3 2.0, 48 kHz, 192 kbps
Субтитры: русские (форсированные, полные), английские вшитые отключаемые

Код:

Format : Matroska
Format version : Version 4 / Version 2
File size : 22.4 GiB
Duration : 1 h 52 min
Overall bit rate mode : Variable
Overall bit rate : 28.5 Mb/s
Movie name : Release by ExKinoRay
Encoded date : UTC 2017-11-06 16:45:51
Writing application : mkvmerge v17.0.0 ('Be Ur Friend') 64-bit
Writing library : libebml v1.3.5 + libmatroska v1.4.8

Video
ID : 1
Format : AVC
Format/Info : Advanced Video Codec
Format profile : High@L4.1
Format settings : CABAC / 2 Ref Frames
Format settings, CABAC : Yes
Format settings, RefFrames : 2 frames
Format settings, GOP : M=1, N=10
Codec ID : V_MPEG4/ISO/AVC
Duration : 1 h 52 min
Bit rate mode : Variable
Bit rate : 24.9 Mb/s
Width : 1 920 pixels
Height : 1 080 pixels
Display aspect ratio : 16:9
Frame rate mode : Constant
Frame rate : 23.976 (24000/1001) FPS
Color space : YUV
Chroma subsampling : 4:2:0
Bit depth : 8 bits
Scan type : Progressive
Bits/(Pixel*Frame) : 0.501
Stream size : 19.6 GiB (87%)
Language : English
Default : Yes
Forced : No

Audio #1
ID : 2
Format : AC-3
Format/Info : Audio Coding 3
Format settings, Endianness : Big
Codec ID : A_AC3
Duration : 1 h 52 min
Bit rate mode : Constant
Bit rate : 640 kb/s
Channel(s) : 6 channels
Channel positions : Front: L C R, Side: L R, LFE
Sampling rate : 48.0 kHz
Frame rate : 31.250 FPS (1536 SPF)
Bit depth : 16 bits
Compression mode : Lossy
Stream size : 516 MiB (2%)
Title : Dub
Language : Russian
Service kind : Complete Main
Default : Yes
Forced : No

Audio #2
ID : 3
Format : AC-3
Format/Info : Audio Coding 3
Format settings, Endianness : Big
Codec ID : A_AC3
Duration : 1 h 52 min
Bit rate mode : Constant
Bit rate : 384 kb/s
Channel(s) : 2 channels
Channel positions : Front: L R
Sampling rate : 48.0 kHz
Frame rate : 31.250 FPS (1536 SPF)
Bit depth : 16 bits
Compression mode : Lossy
Stream size : 309 MiB (1%)
Title : MVO
Language : Russian
Service kind : Complete Main
Default : No
Forced : No

Audio #3
ID : 4
Format : DTS
Format/Info : Digital Theater Systems
Format profile : MA / Core
Mode : 16
Format settings, Endianness : Big
Codec ID : A_DTS
Duration : 1 h 52 min
Bit rate mode : Variable / Constant
Bit rate : 2 352 kb/s / 1 509 kb/s
Channel(s) : 6 channels
Channel positions : Front: L C R, Side: L R, LFE
Sampling rate : 48.0 kHz
Frame rate : 93.750 FPS (512 SPF)
Bit depth : 16 bits
Compression mode : Lossless / Lossy
Stream size : 1.85 GiB (8%)
Title : Original
Language : English
Default : No
Forced : No

Audio #4
ID : 5
Format : AC-3
Format/Info : Audio Coding 3
Format settings, Endianness : Big
Codec ID : A_AC3
Duration : 1 h 52 min
Bit rate mode : Constant
Bit rate : 192 kb/s
Channel(s) : 2 channels
Channel positions : Front: L R
Sampling rate : 48.0 kHz
Frame rate : 31.250 FPS (1536 SPF)
Bit depth : 16 bits
Compression mode : Lossy
Stream size : 155 MiB (1%)
Title : Commentary by Writer Director Edgar Wright
Language : English
Service kind : Complete Main
Default : No
Forced : No

Text #1
ID : 6
Format : UTF-8
Codec ID : S_TEXT/UTF8
Codec ID/Info : UTF-8 Plain Text
Duration : 1 h 46 min
Bit rate : 1 b/s
Count of elements : 51
Stream size : 1.50 KiB (0%)
Title : Forced
Language : Russian
Default : Yes
Forced : No

Text #2
ID : 7
Format : UTF-8
Codec ID : S_TEXT/UTF8
Codec ID/Info : UTF-8 Plain Text
Duration : 1 h 51 min
Bit rate : 96 b/s
Count of elements : 1602
Stream size : 78.7 KiB (0%)
Title : Full
Language : Russian
Default : No
Forced : No

Text #3
ID : 8
Format : UTF-8
Codec ID : S_TEXT/UTF8
Codec ID/Info : UTF-8 Plain Text
Duration : 1 h 51 min
Bit rate : 79 b/s
Count of elements : 2275
Stream size : 65.1 KiB (0%)
Title : SDH
Language : English
Default : No
Forced : No

Menu
00:00:00.000 : en:00:00:00.000
00:09:11.050 : en:00:09:11.050
00:13:30.476 : en:00:13:30.476
00:20:58.174 : en:00:20:58.174
00:25:17.599 : en:00:25:17.599
00:33:07.903 : en:00:33:07.903
00:43:43.246 : en:00:43:43.246
00:48:15.643 : en:00:48:15.643
00:53:39.550 : en:00:53:39.550
00:58:51.903 : en:00:58:51.903
01:05:23.545 : en:01:05:23.545
01:11:34.081 : en:01:11:34.081
01:19:17.002 : en:01:19:17.002
01:30:30.675 : en:01:30:30.675
01:38:04.170 : en:01:38:04.170
01:43:30.413 : en:01:43:30.413
Релиз:

picpicpicpicpic
Для увеличения картинки щелкните мышкой по превью

Этот торрент недоступен для скачивания без регистрации, однако доступен по публичной magnet-ссылке (источники с публичных трекеров). Перед использованием ссылки прочтите, пожалуйста Пользовательское соглашение, а также как можно дольше оставайтесь на раздаче! Для того, чтобы скачать сам торрент-файл (который видит больше источников), а также для того, чтобы поблагодарить релизера, вам необходимо зарегистрироваться. Если регистрироваться лень - вы можете также попробовать скачать релиз по нашим партнерским ссылкам ниже. Кроме того, зарегистрированным пользователям не показывается всплывающая реклама при скачивании.

[underverse.me].t91237.torrent
Трекер: Зарегистрирован   [ 08.11.2017 14:50 ]  

Статус: проверено (by makkol at 08.11.2017 14:51)
Поблагодарили: пока никто не поблагодарил...
Тип торрента: публичный - доступные источники с открытых трекеров: 
Размер: 22,42 GB (занимает 5,12 DVDR, для записи нужно 6 болванок DVDR/RW)
 
 
Похожие темы
Форум Тема Автор Торрент Отв. Посл. сооб.
T Зарубежное кино [DVDRip, Low-Res HDRip, и т.д.] Малыш на драйве / Baby Driver (Эдгар Райт) [2017 г., боевик, триллер, криминал, музыка, WEB-DLRip] MVO (@MUZOBOZ@) makkol
15 | 2

0 | 1009

41

14.09.2017 22:09

Зарубежное кино [DVDRip, Low-Res HDRip, и т.д.] Малыш на драйве / Baby Driver (Эдгар Райт) [2017 г., боевик, триллер, криминал, музыка, BDRip] Dub makkol
638 | 10

0 | 2077

29

08.11.2017 13:56

Зарубежное кино [DVDRip, Low-Res HDRip, и т.д.] Малыш на драйве / Baby Driver (Эдгар Райт) [2017 г., боевик, триллер, криминал, музыка, BDRip] Dub + Original + Sub makkol
144 | 18

0 | 814

9

08.11.2017 14:05

T Зарубежное кино [HDDVDRip / BDRip / WEB-DL / HDTV 1080/720р] Малыш на драйве / Baby Driver (Эдгар Райт) [2017 г., боевик, триллер, криминал, музыка, WEB-DL 1080p] MVO (@MUZOBOZ@) makkol
22 | 3

1 | 1377

52

15.09.2017 18:44

Зарубежное кино [HDDVDRip / BDRip / WEB-DL / HDTV 1080/720р] Малыш на драйве / Baby Driver (Эдгар Райт) [2017 г., боевик, триллер, криминал, музыка, BDRip 720p] Dub + MVO (Paradox & Omskbird records) + Original + Sub makkol
18 | 3

0 | 755

10

08.11.2017 14:26

Зарубежное кино [HDDVDRip / BDRip / WEB-DL / HDTV 1080/720р] Малыш на драйве / Baby Driver (Эдгар Райт) [2017 г., боевик, триллер, криминал, музыка, BDRip 1080p] Dub + MVO (Paradox & Omskbird records) + Original + Sub makkol
50 | 3

0 | 880

13

08.11.2017 14:39

T Новинки кино [CAMRip, TS, DVDScr, WP, TC] Малыш на драйве / Baby Driver (Эдгар Райт) [2017 г., боевик, триллер, криминал, музыка, TS] MVO (Колобок) makkol
33 | 4

0 | 1268

36

14.07.2017 15:25


Яндекс.Метрика powered by Sphinx


В Н И М А Н И Е
Сайт не распространяет и не хранит электронные версии произведений, а лишь бесплатно и без коммерческой выгоды (не требуя взамен платы,
SMS и т.д.) предоставляет доступ к создаваемому пользователями каталогу ссылок на торрент-файлы, которые содержат только списки хеш-сумм.
Убедительная просьба с жалобами обращаться напрямую к пользователю, разместившему торрент файл.

Вверх