Loading...
Error

Тёмная башня / The Dark Tower (Николай Арсель) [2017 г., ужасы, фантастика, фэнтези, боевик, приключения, вестерн, BD-Remux] Dub (iTunes) + Original + Sub

Статистика раздачи
Размер:  18,2 GB   |    Зарегистрирован:  6 месяцев   |    Скачан:  27 раз

Полного источника не было: 7 дней

Сидов:  0  |  0 KB/s  ]   Личеров:  0  |  0 KB/s  ]

* - сиды/пиры с внешних источников

   
 
Автор Сообщение

makkol Пол:Муж

26-Окт-2017 21:20

Тёмная башня / The Dark Tower
«Есть и другие миры, кроме этих»


Год выпуска: 2017
Жанр: ужасы, фантастика, фэнтези, боевик, приключения, вестерн
Производство: США [Imagine Entertainment, Media Rights Capital, Sony Pictures Entertainment (SPE), Weed Road Pictures]
Режиссер: Николай Арсель
В ролях: Идрис Эльба, Мэттью МакКонахи, Том Тейлор, Клаудия Ким, Фрэн Кранц, Эбби Ли, Джеки Эрл Хейли, Кэтрин Уинник, Деннис Хейсбёрт
Сюжет фильма:
Наш мир — не единственный из существующих. Заклятые враги Роланд Дискейн, последний из ордена стрелков, и Уолтер О’Дим, известный также как Человек в чёрном, ведут извечную борьбу. На кону — мифическая Тёмная Башня, последний оплот и надежда вселенной, без которой мир будет повержен в полный хаос и разрушение. Силам добра и зла суждено столкнуться в последней схватке, ведь Роланд Дискейн — единственный, кому под силу остановить Человека в черном, прежде чем тот разрушит Тёмную Башню...

  • Мировая премьера: 3 августа 2017
  • Российская премьера: 3 августа 2017


Качество видео: BD-Remux

Продолжительность: 01:34:44
Формат: MKV
Видео: MPEG-4 AVC, 1920x1080 (16:9), 23.976 fps, 24.8 Mbps
Аудио #1: русский, дублированный (iTunes), AC3 5.1, 48 kHz, 384 kbps
Аудио #2: английский, оригинал, DTS-HD MA 5.1, 48 kHz, 2290 kbps
Субтитры: русские (forced, full), английские (full, SDH) вшитые отключаемые

Код:

Format : Matroska
Format version : Version 4 / Version 2
File size : 18.2 GiB
Duration : 1 h 34 min
Overall bit rate mode : Variable
Overall bit rate : 27.5 Mb/s
Encoded date : UTC 2017-10-26 18:33:42
Writing application : mkvmerge v17.0.0 ('Be Ur Friend') 64-bit
Writing library : libebml v1.3.5 + libmatroska v1.4.8

Video
ID : 1
Format : AVC
Format/Info : Advanced Video Codec
Format profile : High@L4.1
Format settings : CABAC / 2 Ref Frames
Format settings, CABAC : Yes
Format settings, RefFrames : 2 frames
Format settings, GOP : M=1, N=10
Codec ID : V_MPEG4/ISO/AVC
Duration : 1 h 34 min
Bit rate mode : Variable
Bit rate : 24.8 Mb/s
Width : 1 920 pixels
Height : 1 080 pixels
Display aspect ratio : 16:9
Frame rate mode : Constant
Frame rate : 23.976 (24000/1001) FPS
Color space : YUV
Chroma subsampling : 4:2:0
Bit depth : 8 bits
Scan type : Progressive
Bits/(Pixel*Frame) : 0.499
Stream size : 16.4 GiB (90%)
Language : English
Default : Yes
Forced : No

Audio #1
ID : 2
Format : AC-3
Format/Info : Audio Coding 3
Format settings, Endianness : Big
Codec ID : A_AC3
Duration : 1 h 34 min
Bit rate mode : Constant
Bit rate : 384 kb/s
Channel(s) : 6 channels
Channel positions : Front: L C R, Side: L R, LFE
Sampling rate : 48.0 kHz
Frame rate : 31.250 FPS (1536 SPF)
Bit depth : 16 bits
Compression mode : Lossy
Stream size : 260 MiB (1%)
Title : iTunes
Language : Russian
Service kind : Complete Main
Default : Yes
Forced : No

Audio #2
ID : 3
Format : DTS
Format/Info : Digital Theater Systems
Format profile : MA / Core
Mode : 16
Format settings, Endianness : Big
Codec ID : A_DTS
Duration : 1 h 34 min
Bit rate mode : Variable / Constant
Bit rate : 2 290 kb/s / 1 509 kb/s
Channel(s) : 6 channels
Channel positions : Front: L C R, Side: L R, LFE
Sampling rate : 48.0 kHz
Frame rate : 93.750 FPS (512 SPF)
Bit depth : 16 bits
Compression mode : Lossless / Lossy
Stream size : 1.52 GiB (8%)
Title : Original
Language : English
Default : No
Forced : No

Text #1
ID : 4
Format : UTF-8
Codec ID : S_TEXT/UTF8
Codec ID/Info : UTF-8 Plain Text
Duration : 1 h 33 min
Bit rate : 0 b/s
Count of elements : 10
Stream size : 575 Bytes (0%)
Title : Forced
Language : Russian
Default : Yes
Forced : No

Text #2
ID : 5
Format : UTF-8
Codec ID : S_TEXT/UTF8
Codec ID/Info : UTF-8 Plain Text
Duration : 1 h 33 min
Bit rate : 57 b/s
Count of elements : 889
Stream size : 39.3 KiB (0%)
Title : Full
Language : Russian
Default : No
Forced : No

Text #3
ID : 6
Format : UTF-8
Codec ID : S_TEXT/UTF8
Codec ID/Info : UTF-8 Plain Text
Duration : 1 h 25 min
Bit rate : 40 b/s
Count of elements : 899
Stream size : 25.2 KiB (0%)
Title : Full
Language : English
Default : No
Forced : No

Text #4
ID : 7
Format : UTF-8
Codec ID : S_TEXT/UTF8
Codec ID/Info : UTF-8 Plain Text
Duration : 1 h 33 min
Bit rate : 41 b/s
Count of elements : 1055
Stream size : 28.4 KiB (0%)
Title : SDH
Language : English
Default : No
Forced : No

Menu
00:00:00.000 : en:00:00:00.000
00:05:51.643 : en:00:05:51.643
00:10:36.094 : en:00:10:36.094
00:16:33.618 : en:00:16:33.618
00:21:54.897 : en:00:21:54.897
00:25:35.534 : en:00:25:35.534
00:31:01.985 : en:00:31:01.985
00:36:25.183 : en:00:36:25.183
00:40:49.822 : en:00:40:49.822
00:46:02.134 : en:00:46:02.134
00:53:18.404 : en:00:53:18.404
00:58:42.853 : en:00:58:42.853
01:03:51.119 : en:01:03:51.119
01:10:37.650 : en:01:10:37.650
01:15:53.174 : en:01:15:53.174
01:21:15.204 : en:01:21:15.204
Релиз:

picpicpicpicpic
Для увеличения картинки щелкните мышкой по превью

Этот торрент недоступен для скачивания без регистрации, однако доступен по публичной magnet-ссылке (источники с публичных трекеров). Перед использованием ссылки прочтите, пожалуйста Пользовательское соглашение, а также как можно дольше оставайтесь на раздаче! Для того, чтобы скачать сам торрент-файл (который видит больше источников), а также для того, чтобы поблагодарить релизера, вам необходимо зарегистрироваться. Если регистрироваться лень - вы можете также попробовать скачать релиз по нашим партнерским ссылкам ниже. Кроме того, зарегистрированным пользователям не показывается всплывающая реклама при скачивании.

[underverse.me].t90587.torrent
Трекер: Зарегистрирован   [ 26.10.2017 21:20 ]  

Статус: T временная (by makkol at 26.10.2017 21:21)
Поблагодарили: 2 человека
Тип торрента: публичный - доступные источники с открытых трекеров: 
Размер: 18,2 GB (занимает 4,16 DVDR, для записи нужно 5 болванок DVDR/RW)
 
 
Похожие темы
Форум Тема Автор Торрент Отв. Посл. сооб.
T Зарубежное кино [DVDRip, Low-Res HDRip, и т.д.] Тёмная башня / The Dark Tower (Николай Арсель) [2017 г., ужасы, фантастика, фэнтези, боевик, приключения, вестерн, BDRip] Dub (iTunes) makkol
46 | 3

0 | 888

47

26.10.2017 20:55

T Зарубежное кино [DVDRip, Low-Res HDRip, и т.д.] Тёмная башня / The Dark Tower (Николай Арсель) [2017 г., ужасы, фантастика, фэнтези, боевик, приключения, вестерн, HDRip] Dub (звук с TS) makkol
53 | 4

0 | 919

22

08.10.2017 14:24

T Зарубежное кино [DVDRip, Low-Res HDRip, и т.д.] Тёмная башня / The Dark Tower (Николай Арсель) [2017 г., ужасы, фантастика, фэнтези, боевик, приключения, вестерн, HDRip] MVO (@MUZOBOZ@) makkol
111 | 4

0 | 1116

56

11.10.2017 13:59

T Зарубежное кино [DVDRip, Low-Res HDRip, и т.д.] Тёмная башня / The Dark Tower (Николай Арсель) [2017 г., ужасы, фантастика, фэнтези, боевик, приключения, вестерн, HDRip] Dub (Line) makkol
26 | 0

0 | 648

36

17.10.2017 21:05

Зарубежное кино [DVDRip, Low-Res HDRip, и т.д.] Тёмная башня / The Dark Tower (Николай Арсель / Nikolaj Arcel) [2017 г., ужасы, фантастика, фэнтези, боевик, приключения, вестерн, BDRip] Dub + Sub (Rus) 90ytr90
597 | 11

0 | 853

12

18.11.2017 07:52

Зарубежное кино [DVDRip, Low-Res HDRip, и т.д.] Тёмная башня / The Dark Tower (Николай Арсель / Nikolaj Arcel) [2017 г., ужасы, фантастика, фэнтези, боевик, приключения, вестерн, BDRip] Dub + Sub (Rus) 90ytr90
14 | 4

0 | 333

3

18.11.2017 07:55

Зарубежное кино [DVDRip, Low-Res HDRip, и т.д.] Тёмная башня / The Dark Tower (Николай Арсель / Nikolaj Arcel) [2017 г., ужасы, фантастика, фэнтези, боевик, приключения, вестерн, BDRip-AVC] Dub + Original (Eng) + Sub (Rus, Eng) 90ytr90
163 | 5

0 | 292

15

18.11.2017 12:36

Зарубежное кино [DVDRip, Low-Res HDRip, и т.д.] Тёмная башня / The Dark Tower (Николай Арсель / Nikolaj Arcel) [2017 г., ужасы, фантастика, фэнтези, боевик, приключения, вестерн, BDRip-AVC] Dub + Sub (Rus) 90ytr90
21 | 3

0 | 224

9

18.11.2017 12:40

Зарубежное кино [DVD / HDDVD / BD / Remux] Тёмная башня / The Dark Tower (Николай Арсель / Nikolaj Arcel) [2017 г., ужасы, фантастика, фэнтези, боевик, приключения, вестерн, BDRemux 1080p] Dub + Original (Eng) + Sub (Rus, Eng) 90ytr90
15 | 4

0 | 440

14

18.11.2017 08:09

T Зарубежное кино [HDDVDRip / BDRip / WEB-DL / HDTV 1080/720р] Тёмная башня / The Dark Tower (Николай Арсель) [2017 г., ужасы, фантастика, фэнтези, боевик, приключения, вестерн, BDRip 1080p] Dub (звук с TS) makkol
15 | 3

0 | 1124

29

08.10.2017 13:30


Яндекс.Метрика powered by Sphinx


В Н И М А Н И Е
Сайт не распространяет и не хранит электронные версии произведений, а лишь бесплатно и без коммерческой выгоды (не требуя взамен платы,
SMS и т.д.) предоставляет доступ к создаваемому пользователями каталогу ссылок на торрент-файлы, которые содержат только списки хеш-сумм.
Убедительная просьба с жалобами обращаться напрямую к пользователю, разместившему торрент файл.

Вверх