Loading...
Error

Великие мастера живописи / Les grandes maitres de la peinture (12 серий из 15) / (Катрин Миньо) [2015 г., документальный, искусство, HDTVRip 720p] DVO

Статистика раздачи
Размер:  22,9 GB   |    Зарегистрирован:  2 дня 15 часов   |    Скачан:  0 раз

Полного источника не было: Никогда

Сидов:  0  |  0 KB/s  ]   Личеров:  0  |  0 KB/s  ]

* - сиды/пиры с внешних источников

   
 
Автор Сообщение

ARI71 Пол:Муж

17-Окт-2017 08:25

Великие мастера живописи / Les grandes maitres de la peinture (12 серий из 15)


Год выпуска: 2015
Жанр: документальный, искусство
Страна: Франция Merapi Productions
Режиссер: Катрин Миньо
Сюжет фильма:
От эпохи романтизма Эжена Делакруа к импрессионизму Клода Мане, от гения Леонардо да Винчи до экспрессионизма Ван Гога. Загляните в прошлое и приготовьтесь к встрече с великими художниками. Взгляните по новому на их шедевры, попытайтесь разгадать секрет успеха, который поистине стал настоящим переворотом для своего времени. Очутитесь у истоков великих художественных течений. Вслед за великими художниками погрузитесь в само сердце истории великого искусства.
Качество видео: HDTVRip 720p

Продолжительность: 12 x ~00:52:50
Формат: MKV
Видео: x264, 1280x720, 5000 kbps
Аудио: русский, двухголосый закадровый [профессиональный], AC3 2.0, 192 kbps

Автор рипа и постера: skorpionN

Код:

Общее
Уникальный идентификатор : 196533294776004315798497901033057581576 (0x93DAEF8D2B4800FFB28CB843FD4A7A08)
Полное имя : D:\Les grands maitres de la peinture_720p\03_Toulouse_Lautrec.mkv
Формат : Matroska
Версия формата : Version 4 / Version 2
Размер файла : 1,91 Гбайт
Продолжительность : 52 м.
Режим общего битрейта : Переменный
Общий поток : 5186 Кбит/сек
Дата кодирования : UTC 2017-10-14 06:12:32
Программа кодирования : mkvmerge v6.9.1 ('Blue Panther') 64bit built on Apr 18 2014 18:23:38
Библиотека кодирования : libebml v1.3.0 + libmatroska v1.4.1

Видео
Идентификатор : 1
Формат : AVC
Формат/Информация : Advanced Video Codec
Профиль формата : High@L4.1
Параметр CABAC формата : Да
Параметр ReFrames формата : 3 кадра
Идентификатор кодека : V_MPEG4/ISO/AVC
Продолжительность : 52 м.
Вид битрейта : Переменный
Битрейт : 5000 Кбит/сек
Максимальный битрейт : 8000 Кбит/сек
Ширина : 1280 пикселей
Высота : 720 пикселей
Соотношение сторон : 16:9
Режим частоты кадров : Постоянный
Частота кадров : 25,000 кадров/сек
Стандарт вещания : NTSC
Цветовое пространство : YUV
Субдискретизация насыщенности : 4:2:0
Битовая глубина : 8 бит
Тип развёртки : Прогрессивная
Бит/(Пиксели*Кадры) : 0.217
Размер потока : 1,80 Гбайт (94%)
Библиотека кодирования : x264 core 114
Настройки программы : cabac=1 / ref=3 / deblock=1:0:0 / analyse=0x3:0x113 / me=hex / subme=7 / psy=1 / psy_rd=1.00:0.00 / mixed_ref=1 / me_range=16 / chroma_me=1 / trellis=1 / 8x8dct=1 / cqm=2 / deadzone=21,11 / fast_pskip=1 / chroma_qp_offset=-4 / threads=6 / sliced_threads=0 / slices=1 / nr=0 / decimate=1 / interlaced=0 / constrained_intra=0 / bframes=3 / b_pyramid=0 / b_adapt=1 / b_bias=0 / direct=1 / weightb=1 / open_gop=0 / weightp=2 / keyint=250 / keyint_min=25 / scenecut=40 / intra_refresh=0 / rc_lookahead=40 / rc=2pass / mbtree=1 / bitrate=5000 / ratetol=1.0 / qcomp=0.60 / qpmin=5 / qpmax=69 / qpstep=4 / cplxblur=20.0 / qblur=0.5 / vbv_maxrate=8000 / vbv_bufsize=7995 / nal_hrd=vbr / ip_ratio=1.40 / aq=1:1.00
Default : Да
Forced : Нет
Цветовой диапазон : Limited
Основные цвета : BT.709
Характеристики трансфера : BT.709
Коэффициенты матрицы : BT.709

Аудио
Идентификатор : 2
Формат : AC-3
Формат/Информация : Audio Coding 3
Расширение режима : CM (complete main)
Параметр Endianness формата : Big
Идентификатор кодека : A_AC3
Продолжительность : 52 м.
Вид битрейта : Постоянный
Битрейт : 192 Кбит/сек
Каналы : 2 канала
Расположение каналов : Front: L R
Частота : 48,0 КГц
Частота кадров : 31,250 кадров/сек (1536 spf)
Метод сжатия : С потерями
Размер потока : 72,4 Мбайт (4%)
Default : Да
Forced : Нет
01. Delacroix
02. Cezanne

03. Тулуз-Лотрек / Toulouse-Lautrec
04. Ван Гог / Van Gogh
05. Леонардо да Винчи / De Vinci
06. Сёра / Seurat
07. Мане / Manet


08. Monet

09. Руссо / Le douanier Rousseau
10. Писсарро / Pissaro
11. Дега / Degas
12. Ренуар / Renoir
13. Микеланджело / Michel-Ange
14. Рембрандт / Rembrandt
15. Гоген / Gauguin
picpicpicpicpic
Для увеличения картинки щелкните мышкой по превью

Этот торрент недоступен для скачивания без регистрации, однако доступен по публичной magnet-ссылке (источники с публичных трекеров). Перед использованием ссылки прочтите, пожалуйста Пользовательское соглашение, а также как можно дольше оставайтесь на раздаче! Для того, чтобы скачать сам торрент-файл (который видит больше источников), а также для того, чтобы поблагодарить релизера, вам необходимо зарегистрироваться. Если регистрироваться лень - вы можете также попробовать скачать релиз по нашим партнерским ссылкам ниже.

[underverse.me].t91785.torrent
Трекер: Зарегистрирован   [ 19.11.2017 18:15 ]  

Статус: T временная (by ARI71 at 19.11.2017 18:15)
Поблагодарили: пока никто не поблагодарил...
Тип торрента: публичный - доступные источники с открытых трекеров: 
Размер: 22,9 GB (занимает 5,23 DVDR, для записи нужно 6 болванок DVDR/RW)
 
 
Похожие темы
Форум Тема Автор Торрент Отв. Посл. сооб.
Зарубежное кино [DVDRip, Low-Res HDRip, и т.д.] Великие мастера / Yi dai zong shi (Вонг Кар-Вай) [2013 г., боевик, драма, биография, WEBRip] VO 90ytr90
19 | 0

2 | 972

50

07.04.2013 20:02

Зарубежное кино [DVDRip, Low-Res HDRip, и т.д.] Великие мастера / Yi dai zong shi (Вонг Кар-Вай) [2013 г., боевик, драма, биография, HDRip] VO 90ytr90
0 | 0

0 | 949

27

24.04.2013 18:39

Зарубежное кино [DVDRip, Low-Res HDRip, и т.д.] Великие мастера / Yi dai zong shi (Вонг Кар-Вай) [2013 г., боевик, драма, биография, HDRip] VO + Original 90ytr90
0 | 0

2 | 1193

54

09.06.2013 11:37



Последний раз редактировалось: ARI71 (19.11.2017 18:15), всего редактировалось 1 раз

ARI71 Пол:Муж

19-Ноя-2017 18:08

Добавлены новые серии:
    04. Ван Гог / Van Gogh
    05. Леонардо да Винчи / De Vinci

Яндекс.Метрика powered by Sphinx


В Н И М А Н И Е
Сайт не распространяет и не хранит электронные версии произведений, а лишь бесплатно и без коммерческой выгоды (не требуя взамен платы,
SMS и т.д.) предоставляет доступ к создаваемому пользователями каталогу ссылок на торрент-файлы, которые содержат только списки хеш-сумм.
Убедительная просьба с жалобами обращаться напрямую к пользователю, разместившему торрент файл.

Вверх