Loading...
Error

Сидр с Роузи / Cider with Rosie (Клод Уозэм) [1971 г., драма, мелодрама, биография, DVDRip-AVC] AVO (Алексеев) + Original

Статистика раздачи
Размер:  1,32 GB   |    Зарегистрирован:  2 месяца 3 дня   |    Скачан:  0 раз

Полного источника не было: 1 час 39 минут

Сидов:  0  |  0 KB/s  ]   Личеров:  0  |  0 KB/s  ]

* - сиды/пиры с внешних источников

   
 
Автор Сообщение

makkol Пол:Муж

08-Окт-2017 11:32

Сидр с Роузи / Cider with Rosie[


Год выпуска: 1971
Жанр: драма, мелодрама, биография
Производство: Великобритания [British Broadcasting Corporation (BBC)]
Режиссер: Клод Уозэм
В ролях: Розмари Лич, Стивен Грендон, Филип Хоукс, Питер Чандлер, Эндрю Веббер, Джонатан Грин, Фрэнсис Ли, Таня Робинсон, Луиса Мартин, Тревор Бэннистер
Сюжет фильма:
Фильм по роману-автобиографии Лоуренса Эдварда Алана Ли о его детстве, проведённом в английской провинции с мамой, братом и сёстрами. Время действия - промежуток между первой и второй мировыми войнами. Место действия - деревушка Слэд в Глочестершире в самом "сердце Англии". Фильм представляет собой хроники традиционных событий деревенской жизни, такими как их запомнил по мере своего взросления мальчик по имени Лори Ли - будущий писатель.

  • Мировая премьера: 25 декабря 1971


Качество видео: DVDRip-AVC

Продолжительность: 01:34:26
Формат: MKV
Видео: MPEG-4 AVC, 696x520 (4:3), 25.000 fps, 1645 kbps
Аудио #1: русский, авторский одноголосый закадровый (Антон Алексеев), AC3 2.0, 48 kHz, 192 kbps
Аудио #2: английский, оригинал, AC3 (mono), 48 kHz, 128 kbps

Код:

Формат                                   : Matroska
Версия формата                           : Version 4 / Version 2
Размер файла                             : 1,32 Гбайт
Продолжительность                        : 1 ч. 34 м.
Общий поток                              : 2004 Кбит/сек
Дата кодирования                         : UTC 2016-08-02 15:47:03
Программа кодирования                    : mkvmerge v7.9.0 ('Birds') 64bit
Библиотека кодирования                   : libebml v1.3.1 + libmatroska v1.4.2

Видео
Идентификатор                            : 1
Формат                                   : AVC
Формат/Информация                        : Advanced Video Codec
Профиль формата                          : High@L3.1
Параметр CABAC формата                   : Да
Параметр ReFrames формата                : 5 кадров
Идентификатор кодека                     : V_MPEG4/ISO/AVC
Продолжительность                        : 1 ч. 34 м.
Битрейт                                  : 1645 Кбит/сек
Ширина                                   : 696 пикселей
Высота                                   : 520 пикселей
Соотношение сторон                       : 4:3
Режим частоты кадров                     : Постоянный
Частота кадров                           : 25,000 кадров/сек
Цветовое пространство                    : YUV
Субдискретизация насыщенности            : 4:2:0
Битовая глубина                          : 8 бит
Тип развёртки                            : Прогрессивная
Бит/(Пиксели*Кадры)                      : 0.182
Размер потока                            : 1,08 Гбайт (82%)
Библиотека кодирования                   : x264 core 142 r2479 dd79a61
Настройки программы                      : cabac=1 / ref=5 / deblock=1:0:0 / analyse=0x3:0x113 / me=umh / subme=8 / psy=1 / psy_rd=1.00:0.00 / mixed_ref=1 / me_range=16 / chroma_me=1 / trellis=1 / 8x8dct=1 / cqm=0 / deadzone=21,11 / fast_pskip=1 / chroma_qp_offset=-2 / threads=6 / lookahead_threads=1 / sliced_threads=0 / nr=0 / decimate=1 / interlaced=0 / bluray_compat=0 / constrained_intra=0 / bframes=3 / b_pyramid=2 / b_adapt=2 / b_bias=0 / direct=3 / weightb=1 / open_gop=0 / weightp=2 / keyint=250 / keyint_min=25 / scenecut=40 / intra_refresh=0 / rc_lookahead=50 / rc=crf / mbtree=1 / crf=21.0 / qcomp=0.60 / qpmin=0 / qpmax=69 / qpstep=4 / ip_ratio=1.40 / aq=1:1.00
Язык                                     : English
Default                                  : Да
Forced                                   : Нет

Аудио #1
Идентификатор                            : 2
Формат                                   : AC-3
Формат/Информация                        : Audio Coding 3
Расширение режима                        : CM (complete main)
Параметр Endianness формата              : Big
Идентификатор кодека                     : A_AC3
Продолжительность                        : 1 ч. 34 м.
Вид битрейта                             : Постоянный
Битрейт                                  : 192 Кбит/сек
Каналы                                   : 2 канала
Расположение каналов                     : Front: L R
Частота                                  : 48,0 КГц
Метод сжатия                             : С потерями
Размер потока                            : 130 Мбайт (10%)
Язык                                     : Russian
Default                                  : Да
Forced                                   : Нет

Аудио #2
Идентификатор                            : 3
Формат                                   : AC-3
Формат/Информация                        : Audio Coding 3
Расширение режима                        : CM (complete main)
Параметр Endianness формата              : Big
Идентификатор кодека                     : A_AC3
Продолжительность                        : 1 ч. 34 м.
Вид битрейта                             : Постоянный
Битрейт                                  : 128 Кбит/сек
Каналы                                   : 1 канал
Расположение каналов                     : Front: C
Частота                                  : 48,0 КГц
Метод сжатия                             : С потерями
Размер потока                            : 86,5 Мбайт (6%)
Язык                                     : English
Default                                  : Нет
Forced                                   : Нет
Перевод: Антон Алексеев
Организация перевода: Minhers76
DVD-Rip и синхронизация русской дороги: Lukas
Релиз:
picpicpicpicpic
Для увеличения картинки щелкните мышкой по превью

Этот торрент недоступен для скачивания без регистрации, однако доступен по публичной magnet-ссылке (источники с публичных трекеров). Перед использованием ссылки прочтите, пожалуйста Пользовательское соглашение, а также как можно дольше оставайтесь на раздаче! Для того, чтобы скачать сам торрент-файл (который видит больше источников), а также для того, чтобы поблагодарить релизера, вам необходимо зарегистрироваться. Если регистрироваться лень - вы можете также попробовать скачать релиз по нашим партнерским ссылкам ниже.

[underverse.me].t89730.torrent
Трекер: Зарегистрирован   [ 08.10.2017 11:32 ]  

Статус: проверено (by makkol at 08.10.2017 11:32)
Поблагодарили: пока никто не поблагодарил...
Тип торрента: публичный - доступные источники с открытых трекеров: 
Размер: 1,32 GB (занимает 0,3 DVDR, для записи нужно 1 болванка DVDR/RW)
 
 

Яндекс.Метрика powered by Sphinx


В Н И М А Н И Е
Сайт не распространяет и не хранит электронные версии произведений, а лишь бесплатно и без коммерческой выгоды (не требуя взамен платы,
SMS и т.д.) предоставляет доступ к создаваемому пользователями каталогу ссылок на торрент-файлы, которые содержат только списки хеш-сумм.
Убедительная просьба с жалобами обращаться напрямую к пользователю, разместившему торрент файл.

Вверх