Loading...
Error

Гадкий Я 3 / Despicable Me 3 (Эрик Гуильон, Кайл Балда, Пьер Коффан) [2017 г., мультфильм, комедия, приключения, семейный, BDRip 720p] Dub (iTunes) + Original

Статистика раздачи
Размер:  3,58 GB   |    Зарегистрирован:  8 месяцев   |    Скачан:  25 раз
Сидов:  2  |  0 KB/s  ]   Личеров:  0  |  0 KB/s  ]

* - сиды/пиры с внешних источников

   
 
Автор Сообщение

makkol Пол:Муж

20-Сен-2017 21:53

Гадкий Я 3 / Despicable Me 3
«Такие разные близнецы»


Год выпуска: 2017
Жанр: мультфильм, комедия, приключения, семейный
Производство: США [Illumination Entertainment, Universal Pictures]
Режиссер: Эрик Гуильон, Кайл Балда, Пьер Коффан
Роли озвучивали: Стив Карелл, Кристен Уиг, Трей Паркер, Миранда Косгров, Дэна Гайер, Nev Scharrel, Пьер Коффан, Стив Кугэн, Джули Эндрюс, Дженни Слейт
Сюжет фильма:
Грядет третье пришествие. Многодетный суперагент, роковая красотка и бессмертные миньоны на подходе. Готовьтесь. Они будут править миром.

  • Мировая премьера: 14 июня 2017
  • Российская премьера: 29 июня 2017


Качество видео: BDRip 720p

Продолжительность: 01:29:40
Формат: MKV
Видео: MPEG-4 AVC, 1280x536 (2.40:1), 23.976 fps, 4700 kbps
Аудио #1: русский, дублированный (iTunes), AC3 5.1, 48 kHz, 384 kbps
Аудио #2: английский, оригинал, AC3 5.1, 48 kHz, 640 kbps
Субтитры: английские вшитые отключаемые

Код:

Format : Matroska
Format version : Version 4 / Version 2
File size : 3.58 GiB
Duration : 1 h 29 min
Overall bit rate : 5 721 kb/s
Encoded date : UTC 2017-09-20 18:36:55
Writing application : mkvmerge v15.0.0 ('Duel with the Devil') 64-bit
Writing library : libebml v1.3.5 + libmatroska v1.4.5

Video
ID : 1
Format : AVC
Format/Info : Advanced Video Codec
Format profile : High@L4.1
Format settings, CABAC : Yes
Format settings, RefFrames : 12 frames
Codec ID : V_MPEG4/ISO/AVC
Duration : 1 h 29 min
Bit rate : 4 700 kb/s
Width : 1 280 pixels
Height : 536 pixels
Display aspect ratio : 2.40:1
Frame rate mode : Constant
Frame rate : 23.976 (24000/1001) FPS
Color space : YUV
Chroma subsampling : 4:2:0
Bit depth : 8 bits
Scan type : Progressive
Bits/(Pixel*Frame) : 0.286
Stream size : 2.94 GiB (82%)
Writing library : x264 core 148 r2705 3f5ed56
Encoding settings : cabac=1 / ref=12 / deblock=1:-3:-3 / analyse=0x3:0x133 / me=umh / subme=10 / psy=1 / psy_rd=1.05:0.05 / mixed_ref=1 / me_range=32 / chroma_me=1 / trellis=2 / 8x8dct=1 / cqm=0 / deadzone=21,11 / fast_pskip=0 / chroma_qp_offset=-3 / threads=12 / lookahead_threads=2 / sliced_threads=0 / nr=0 / decimate=0 / interlaced=0 / bluray_compat=0 / constrained_intra=0 / bframes=8 / b_pyramid=2 / b_adapt=2 / b_bias=0 / direct=3 / weightb=1 / open_gop=0 / weightp=2 / keyint=240 / keyint_min=23 / scenecut=40 / intra_refresh=0 / rc_lookahead=50 / rc=2pass / mbtree=0 / bitrate=4700 / ratetol=1.0 / qcomp=0.60 / qpmin=0 / qpmax=69 / qpstep=4 / cplxblur=20.0 / qblur=0.5 / vbv_maxrate=50000 / vbv_bufsize=62500 / nal_hrd=none / filler=0 / ip_ratio=1.40 / pb_ratio=1.30 / aq=3:0.80
Language : English
Default : Yes
Forced : No

Audio #1
ID : 2
Format : AC-3
Format/Info : Audio Coding 3
Format settings, Endianness : Big
Codec ID : A_AC3
Duration : 1 h 29 min
Bit rate mode : Constant
Bit rate : 384 kb/s
Channel(s) : 6 channels
Channel positions : Front: L C R, Side: L R, LFE
Sampling rate : 48.0 kHz
Frame rate : 31.250 FPS (1536 SPF)
Bit depth : 16 bits
Compression mode : Lossy
Stream size : 246 MiB (7%)
Title : iTunes
Language : Russian
Service kind : Complete Main
Default : Yes
Forced : No

Audio #2
ID : 3
Format : AC-3
Format/Info : Audio Coding 3
Format settings, Endianness : Big
Codec ID : A_AC3
Duration : 1 h 29 min
Bit rate mode : Constant
Bit rate : 640 kb/s
Channel(s) : 6 channels
Channel positions : Front: L C R, Side: L R, LFE
Sampling rate : 48.0 kHz
Frame rate : 31.250 FPS (1536 SPF)
Bit depth : 16 bits
Compression mode : Lossy
Stream size : 410 MiB (11%)
Title : Original
Language : English
Service kind : Complete Main
Default : No
Forced : No

Text
ID : 4
Format : UTF-8
Codec ID : S_TEXT/UTF8
Codec ID/Info : UTF-8 Plain Text
Duration : 1 h 21 min
Bit rate : 108 b/s
Count of elements : 1527
Stream size : 64.7 KiB (0%)
Title : SDH Colored
Language : English
Default : No
Forced : No

Menu
00:00:00.000 : en:00:00:00.000
00:03:06.103 : en:00:03:06.103
00:07:57.977 : en:00:07:57.977
00:11:12.839 : en:00:11:12.839
00:16:15.766 : en:00:16:15.766
00:20:07.498 : en:00:20:07.498
00:24:07.988 : en:00:24:07.988
00:28:57.069 : en:00:28:57.069
00:32:55.348 : en:00:32:55.348
00:39:01.839 : en:00:39:01.839
00:42:44.187 : en:00:42:44.187
00:46:47.179 : en:00:46:47.179
00:50:55.636 : en:00:50:55.636
00:56:12.077 : en:00:56:12.077
01:00:02.265 : en:01:00:02.265
01:05:41.229 : en:01:05:41.229
01:10:14.544 : en:01:10:14.544
01:14:33.761 : en:01:14:33.761
01:19:29.723 : en:01:19:29.723
01:21:56.995 : en:01:21:56.995
Релиз:

picpicpicpicpic
Для увеличения картинки щелкните мышкой по превью

Этот торрент недоступен для скачивания без регистрации, однако доступен по публичной magnet-ссылке (источники с публичных трекеров). Перед использованием ссылки прочтите, пожалуйста Пользовательское соглашение, а также как можно дольше оставайтесь на раздаче! Для того, чтобы скачать сам торрент-файл (который видит больше источников), а также для того, чтобы поблагодарить релизера, вам необходимо зарегистрироваться. Если регистрироваться лень - вы можете также попробовать скачать релиз по нашим партнерским ссылкам ниже. Кроме того, зарегистрированным пользователям не показывается всплывающая реклама при скачивании.

[underverse.me].t89080.torrent
Трекер: Зарегистрирован   [ 20.09.2017 21:53 ]  

Статус: T временная (by makkol at 20.09.2017 21:53)
Поблагодарили: пока никто не поблагодарил...
Тип торрента: публичный - доступные источники с открытых трекеров: 
Размер: 3,58 GB (занимает 0,82 DVDR, для записи нужно 1 болванка DVDR/RW)
 
 
Похожие темы
Форум Тема Автор Торрент Отв. Посл. сооб.
T Зарубежные мультфильмы Гадкий Я 3 / Despicable Me 3 (Эрик Гуильон, Кайл Балда, Пьер Коффан) [2017 г., мультфильм, комедия, приключения, семейный, WEBRip] Dub (Line) makkol
46 | 0

1 | 1010

33

03.09.2017 13:57

T Зарубежные мультфильмы Гадкий Я 3 / Despicable Me 3 (Эрик Гуильон, Кайл Балда, Пьер Коффан) [2017 г., мультфильм, комедия, приключения, семейный, HDRip] Dub (Line) makkol
43 | 1

0 | 959

17

18.09.2017 21:19

T Зарубежные мультфильмы Гадкий Я 3 / Despicable Me 3 (Эрик Гуильон, Кайл Балда, Пьер Коффан) [2017 г., мультфильм, комедия, приключения, семейный, BDRip] Dub (iTunes) makkol
203 | 6

0 | 1309

65

20.09.2017 21:46

T Мультфильмы [HDDVDRip / BDRip / WEB-DL / HDTV 1080/720р] Гадкий Я 3 / Despicable Me 3 (Эрик Гуильон, Кайл Балда, Пьер Коффан) [2017 г., мультфильм, комедия, приключения, семейный, WEBRip 1080p] Dub (Line) makkol
131 | 0

2 | 1687

65

14.09.2017 22:32

T Мультфильмы [HDDVDRip / BDRip / WEB-DL / HDTV 1080/720р] Гадкий Я 3 / Despicable Me 3 (Эрик Гуильон, Кайл Балда, Пьер Коффан) [2017 г., мультфильм, комедия, приключения, семейный, BDRip 1080p] Dub (Line) makkol
1 | 4

0 | 1068

19

18.09.2017 21:27

T Мультфильмы [HDDVDRip / BDRip / WEB-DL / HDTV 1080/720р] Гадкий Я 3 / Despicable Me 3 (Эрик Гуильон, Кайл Балда, Пьер Коффан) [2017 г., мультфильм, комедия, приключения, семейный, BDRip 1080p] Dub (iTunes) + Original makkol
21 | 4

0 | 1287

38

20.09.2017 21:58

T Новинки мультфильмов [CAMRip, TS, DVDScr, WP, TC] Гадкий я 3 / Despicable Me 3 (Эрик Гуильон, Кайл Балда, Пьер Коффан) [2017 г., мультфильм, фантастика, боевик, комедия, приключения, семейный, TS] Dub 90ytr90
264 | 0

0 | 1281

47

29.06.2017 19:50

T Новинки мультфильмов [CAMRip, TS, DVDScr, WP, TC] Гадкий я 3 / Despicable Me 3 (Эрик Гуильон, Кайл Балда, Пьер Коффан) [2017 г., мультфильм, фантастика, боевик, комедия, приключения, семейный, TS 720p] Dub 90ytr90
62 | 1

0 | 1390

60

29.06.2017 19:54


Яндекс.Метрика powered by Sphinx


В Н И М А Н И Е
Сайт не распространяет и не хранит электронные версии произведений, а лишь бесплатно и без коммерческой выгоды (не требуя взамен платы,
SMS и т.д.) предоставляет доступ к создаваемому пользователями каталогу ссылок на торрент-файлы, которые содержат только списки хеш-сумм.
Убедительная просьба с жалобами обращаться напрямую к пользователю, разместившему торрент файл.

Вверх