Loading...
Error

Подводная эра / Deep (Джулио Сото Гарпид) [2017 г., мультфильм, комедия, приключения, семейный, WEB-DL 1080p] Rus (Dub iTunes) + Ukr (Dub iTunes)

Статистика раздачи
Размер:  3,64 GB   |    Зарегистрирован:  8 месяцев   |    Скачан:  23 раза

Полного источника не было: 4 дня

Сидов:  0  |  0 KB/s  ]   Личеров:  0  |  0 KB/s  ]

* - сиды/пиры с внешних источников

   
 
Автор Сообщение

makkol Пол:Муж

06-Сен-2017 14:24

Подводная эра / Deep
«2100 год. Земля под водой. Целое море приключений»


Год выпуска: 2017
Жанр: мультфильм, комедия, приключения, семейный
Производство: США , Испания , Бельгия [The Thinklab, Kraken Films, The, Umedia]
Режиссер: Джулио Сото Гарпид
Роли озвучивали: Фил ЛаМарр, Джесс Харнелл, Джефф Беннетт, Дэйв Фенной, Боб Берген, Уильям Салиерс, Joe Hernandez, Анна Вочино, Джо Охман, Терри Дуглас
Сюжет фильма:
К 2100 году люди покинули нашу планету. Но в глубокой впадине на самом дне океана продолжает жить колония удивительных морских существ. Среди них любопытный глубоководный осьминожек Дип и двое его друзей — пугливый удильщик Иво и импульсивная креветка Элис. Однако, когда их дому угрожает опасность, мудрый дедушка Дипа, гигантский осьминог Кракен, отправляет их за помощью на другой конец океана. Друзей и присоединившуюся к ним стеснительную мурену Мойру ждет целое море опасных и невероятных приключений…

  • Мировая премьера: 11 мая 2017
  • Российская премьера: 1 июня 2017


Качество видео: WEB-DL 1080p

Продолжительность: 01:28:24
Формат: MKV
Видео: MPEG-4 AVC, 1920x1038 (1.85:1), 5127 kbps
Аудио #1: русский, дублированный (iTunes), AC3 5.1, 48 kHz, 384 kbps
Аудио #2: украинский, дублированный (iTunes), AC3 5.1, 48 kHz, 384 kbps

Код:

Формат : Matroska
Версия формата : Version 4 / Version 2
Размер файла : 3,64 Гбайт
Продолжительность : 1 ч. 28 м.
Общий поток : 5897 Кбит/сек
Дата кодирования : UTC 2017-09-03 10:10:48
Программа кодирования : mkvmerge v15.0.0 ('Duel with the Devil') 64-bit
Библиотека кодирования : libebml v1.3.5 + libmatroska v1.4.5

Видео
Идентификатор : 1
Формат : AVC
Формат/Информация : Advanced Video Codec
Профиль формата : High@L4
Параметр CABAC формата : Да
Параметр RefFrames формата : 4 кадра
Идентификатор кодека : V_MPEG4/ISO/AVC
Продолжительность : 1 ч. 28 м.
Битрейт : 5127 Кбит/сек
Ширина : 1920 пикселей
Высота : 1038 пикселей
Соотношение сторон : 1,85:1
Режим частоты кадров : Постоянный
Частота кадров : 25,000 кадров/сек
Цветовое пространство : YUV
Субдискретизация насыщенности : 4:2:0
Битовая глубина : 8 бит
Тип развёртки : Прогрессивная
Бит/(Пиксели*Кадры) : 0.103
Размер потока : 3,17 Гбайт (87%)
Заголовок : iTunes
Язык : English
Default : Да
Forced : Нет
Цветовой диапазон : Limited
Основные цвета : BT.709
Характеристики трансфера : BT.709
Коэффициенты матрицы : BT.709

Аудио #1
Идентификатор : 2
Формат : AC-3
Формат/Информация : Audio Coding 3
Параметр Endianness формата : Big
Идентификатор кодека : A_AC3
Продолжительность : 1 ч. 28 м.
Вид битрейта : Постоянный
Битрейт : 384 Кбит/сек
Каналы : 6 каналов
Расположение каналов : Front: L C R, Side: L R, LFE
Частота : 48,0 КГц
Частота кадров : 31,250 кадров/сек (1536 SPF)
Битовая глубина : 16 бит
Метод сжатия : С потерями
Размер потока : 243 Мбайт (7%)
Заголовок : DUB
Язык : Russian
Default : Да
Forced : Нет

Аудио #2
Идентификатор : 3
Формат : AC-3
Формат/Информация : Audio Coding 3
Параметр Endianness формата : Big
Идентификатор кодека : A_AC3
Продолжительность : 1 ч. 28 м.
Вид битрейта : Постоянный
Битрейт : 384 Кбит/сек
Каналы : 6 каналов
Расположение каналов : Front: L C R, Side: L R, LFE
Частота : 48,0 КГц
Частота кадров : 31,250 кадров/сек (1536 SPF)
Битовая глубина : 16 бит
Метод сжатия : С потерями
Размер потока : 243 Мбайт (7%)
Заголовок : DUB
Язык : Ukrainian
Default : Нет
Forced : Нет

Меню
00:00:00.000 : en:Глава 1
00:05:41.880 : en:Глава 2
00:11:01.120 : en:Глава 3
00:18:19.840 : en:Глава 4
00:27:12.000 : en:Глава 5
00:31:56.520 : en:Глава 6
00:38:11.720 : en:Глава 7
00:44:39.840 : en:Глава 8
00:49:54.080 : en:Глава 9
00:56:12.320 : en:Глава 10
01:02:46.080 : en:Глава 11
01:08:17.120 : en:Глава 12
01:14:39.920 : en:Глава 13
picpicpicpicpic
Для увеличения картинки щелкните мышкой по превью

Этот торрент недоступен для скачивания без регистрации, однако доступен по публичной magnet-ссылке (источники с публичных трекеров). Перед использованием ссылки прочтите, пожалуйста Пользовательское соглашение, а также как можно дольше оставайтесь на раздаче! Для того, чтобы скачать сам торрент-файл (который видит больше источников), а также для того, чтобы поблагодарить релизера, вам необходимо зарегистрироваться. Если регистрироваться лень - вы можете также попробовать скачать релиз по нашим партнерским ссылкам ниже. Кроме того, зарегистрированным пользователям не показывается всплывающая реклама при скачивании.

[underverse.me].t88347.torrent
Трекер: Зарегистрирован   [ 06.09.2017 14:24 ]  

Статус: T временная (by makkol at 06.09.2017 14:25)
Поблагодарили: 2 человека
Тип торрента: публичный - доступные источники с открытых трекеров: 
Размер: 3,64 GB (занимает 0,83 DVDR, для записи нужно 1 болванка DVDR/RW)
 
 
Похожие темы
Форум Тема Автор Торрент Отв. Посл. сооб.
Зарубежное кино [DVDRip, Low-Res HDRip, и т.д.] Подводная лодка / Das Boot (Вольфганг Петерсен) [1985 г., драма, военный, DVDRip-AVC] MVO + Dub (Eng) + AVO + Original garry
1 | 0

1 | 2041

10

25.02.2013 17:15

Зарубежное кино [DVDRip, Low-Res HDRip, и т.д.] Подводная лодка Ю-571 / Ю-571 / U-571 (Джонатан Мостоу / Jonathan Mostow) [2000 г., боевик, триллер, драма, военный, BDRip] Dub (Мосфильм) 90ytr90
7 | 0

0 | 401

3

31.01.2015 22:33

Зарубежное кино [DVDRip, Low-Res HDRip, и т.д.] Подводная лодка Ю-571 / Ю-571 / U-571 (Джонатан Мостоу / Jonathan Mostow) [2000 г., боевик, триллер, драма, военный, BDRip] Dub (Мосфильм) + AVO (Визгунов) + Original (Eng) + Sub (Rus, Eng) 90ytr90
1 | 0

0 | 385

3

31.01.2015 22:33

Зарубежное кино [DVDRip, Low-Res HDRip, и т.д.] Подводная лодка Ю-571 / Ю-571 / U-571 (Джонатан Мостоу / Jonathan Mostow) [2000 г., боевик, триллер, драма, военный, BDRip-AVC] [Open Matte] Dub 90ytr90
7 | 1

0 | 424

3

31.01.2015 22:34

Зарубежные мультфильмы Подводная братва / Shark Tale (Бибо Бержерон, Викки Дженсон) [2004 г., мультфильм, комедия, приключения, семейный, DVDRip] Dub + Eng 90ytr90
13 | 0

0 | 1254

8

10.02.2013 16:05

T Зарубежные мультфильмы Подводная эра / Deep (Джулио Сото Гарпид) [2017 г., мультфильм, комедия, приключения, семейный, WEB-DLRip] Dub (звук с TS) makkol
1 | 0

0 | 1277

8

26.08.2017 10:14

T Зарубежные мультфильмы Подводная эра / Deep (Джулио Сото Гарпид) [2017 г., мультфильм, комедия, приключения, семейный, WEB-DLRip] Dub (iTunes) + Original makkol
5 | 0

0 | 1014

15

06.09.2017 14:14

T Зарубежные мультфильмы Подводная эра / Deep (Джулио Сото Гарпид / Julio Soto Gurpide) [2017 г., мультфильм, комедия, приключения, семейный, полнометражный, WEB-DLRip] Dub (iTunes) 90ytr90
35 | 3

0 | 259

11

11.04.2018 14:02

Рыбалка Подводная охота с Александром Кочубеем. "Налимы северных рек" (Александр Кочубей) [2008 г., документальный, рыбалка, подводная охота, SatRip] ARI71
2 | 0

0 | 215

1

12.04.2018 19:40

Зарубежное кино [HDDVDRip / BDRip / WEB-DL / HDTV 1080/720р] Подводная лодка Ю-571 / Ю-571 / U-571 (Джонатан Мостоу / Jonathan Mostow) [2000 г., боевик, триллер, драма, военный, BDRip 720p] [Open Matte] Dub + AVO (С.Визгунов) + Original (Eng) 90ytr90
7 | 0

1 | 579

7

01.02.2015 06:54


Яндекс.Метрика powered by Sphinx


В Н И М А Н И Е
Сайт не распространяет и не хранит электронные версии произведений, а лишь бесплатно и без коммерческой выгоды (не требуя взамен платы,
SMS и т.д.) предоставляет доступ к создаваемому пользователями каталогу ссылок на торрент-файлы, которые содержат только списки хеш-сумм.
Убедительная просьба с жалобами обращаться напрямую к пользователю, разместившему торрент файл.

Вверх