Loading...
Error

Клинический случай / Last Chance Hospital (1-3 серии из 3) [2017 г., документальный, медицина, исследование, наука, HDTVRip 720p] DVO

Статистика раздачи
Размер:  7,45 GB   |    Зарегистрирован:  2 месяца 23 дня   |    Скачан:  0 раз

Полного источника не было: Никогда

Сидов:  0  |  0 KB/s  ]   Личеров:  0  |  0 KB/s  ]

* - сиды/пиры с внешних источников

   
 
Автор Сообщение

ARI71 Пол:Муж

30-Авг-2017 07:52

Клинический случай / Last Chance Hospital (1-3 серии из 3)


Год выпуска: 2017
Жанр: документальный, медицина, исследование, наука
Страна: США Discovery Channel
Сюжет фильма:
Недалеко от Вашингтона на территории Научно-исследовательского центра департамента здравоохранения США находится так называемый «Корпус №10» − крупнейшая в мире больница, специализирующаяся на клинических испытаниях. Именно там лучшие американские ученые-медики проводят рискованные, но критически важные исследования и впервые испытывают новейшие методы лечения на людях, чтобы в будущем революционные открытия стали достоянием всех практикующих врачей. В новой программе вы познакомитесь с работой исследователей и докторов этой необыкновенной больницы и, конечно, с её пациентами, которые также способствуют прогрессу в медицине.
Качество видео: HDTVRip 720p

Продолжительность: 3 x ~01:24:00
Формат: MKV
Видео: MPEG-4 AVC, 1280x720, 4000 kbps
Аудио: русский, двухголосый [профессиональный], MP2 2.0, 192 kbps

Код:

Общее
Уникальный идентификатор : 94278010821132843750041914355380695178 (0x46ED48CF5739A328DEA6E388634CB08A)
Полное имя : D:\Клинический случай 720p RG HitWay\01 Клинический случай.mkv
Формат : Matroska
Версия формата : Version 2
Размер файла : 2,49 Гбайт
Продолжительность : 1 ч. 24 м.
Режим общего битрейта : Постоянный
Общий поток : 4198 Кбит/сек
Программа кодирования : Lavf54.63.104
Библиотека кодирования : Lavf54.63.104 / Lavf54.63.104

Видео
Идентификатор : 1
Формат : AVC
Формат/Информация : Advanced Video Codec
Профиль формата : High@L4.1
Параметр CABAC формата : Да
Параметр ReFrames формата : 3 кадра
Идентификатор кодека : V_MPEG4/ISO/AVC
Продолжительность : 1 ч. 24 м.
Вид битрейта : Постоянный
Битрейт : 4000 Кбит/сек
Ширина : 1280 пикселей
Высота : 720 пикселей
Соотношение сторон : 16:9
Режим частоты кадров : Постоянный
Частота кадров : 50,000 кадров/сек
Стандарт вещания : PAL
Цветовое пространство : YUV
Субдискретизация насыщенности : 4:2:0
Битовая глубина : 8 бит
Тип развёртки : Прогрессивная
Бит/(Пиксели*Кадры) : 0.087
Размер потока : 2,32 Гбайт (93%)
Default : Нет
Forced : Нет
Цветовой диапазон : Limited
Основные цвета : BT.709
Характеристики трансфера : BT.709
Коэффициенты матрицы : BT.709

Аудио
Идентификатор : 2
Формат : MPEG Audio
Версия формата : Version 1
Профиль формата : Layer 2
Идентификатор кодека : A_MPEG/L2
Идентификатор кодека/Подсказка : MP2
Продолжительность : 1 ч. 24 м.
Вид битрейта : Постоянный
Битрейт : 192 Кбит/сек
Каналы : 2 канала
Частота : 48,0 КГц
Метод сжатия : С потерями
Задержка видео : 16 мс.
Размер потока : 116 Мбайт (5%)
Язык : English
Default : Да
Forced : Нет
picpicpicpicpic
Для увеличения картинки щелкните мышкой по превью

Этот торрент недоступен для скачивания без регистрации, однако доступен по публичной magnet-ссылке (источники с публичных трекеров). Перед использованием ссылки прочтите, пожалуйста Пользовательское соглашение, а также как можно дольше оставайтесь на раздаче! Для того, чтобы скачать сам торрент-файл (который видит больше источников), а также для того, чтобы поблагодарить релизера, вам необходимо зарегистрироваться. Если регистрироваться лень - вы можете также попробовать скачать релиз по нашим партнерским ссылкам ниже.

[underverse.me].t87932.torrent
Трекер: Зарегистрирован   [ 30.08.2017 07:52 ]  

Статус: проверено (by ARI71 at 30.08.2017 07:53)
Поблагодарили: пока никто не поблагодарил...
Тип торрента: публичный - доступные источники с открытых трекеров: 
Размер: 7,45 GB (занимает 1,7 DVDR, для записи нужно 2 болванки DVDR/RW)
 
 
Похожие темы
Форум Тема Автор Торрент Отв. Посл. сооб.
T Зарубежное кино [DVDRip, Low-Res HDRip, и т.д.] Клинический случай / Clinical (Алистер Легранд) [2017 г., триллер, WEB-DLRip] MVO (Синема УС) makkol
10 | 0

0 | 527

6

14.05.2017 14:30

Научно-популярные фильмы Клинический случай / Last Chance Hospital (1-3 серии из 3) [2017 г., документальный, медицина, исследование, наука, HDTVRip] DVO ARI71
6 | 0

0 | 321

1

30.08.2017 07:40


Яндекс.Метрика powered by Sphinx


В Н И М А Н И Е
Сайт не распространяет и не хранит электронные версии произведений, а лишь бесплатно и без коммерческой выгоды (не требуя взамен платы,
SMS и т.д.) предоставляет доступ к создаваемому пользователями каталогу ссылок на торрент-файлы, которые содержат только списки хеш-сумм.
Убедительная просьба с жалобами обращаться напрямую к пользователю, разместившему торрент файл.

Вверх