Loading...
Error

(Vocal Jazz, Jazz-Funk) Nils Landgren Funk Unit - Unbreakable (2017) [FLAC (Tracks+.CUE), lossless]

Статистика раздачи
Размер:  389 MB   |    Зарегистрирован:  8 месяцев   |    Скачан:  8 раз

Полного источника не было: 3 дня

Сидов:  0  |  0 KB/s  ]   Личеров:  0  |  0 KB/s  ]

* - сиды/пиры с внешних источников

   
 
Автор Сообщение

Darkferse Пол:Жен

27-Авг-2017 20:07

Nils Landgren Funk Unit - Unbreakable

Жанр: Vocal Jazz, Jazz-Funk
Год выпуска: 2017
Источник: CD
Производитель: ACT Music - ACT 9039-2
Аудиокодек: FLAC
Тип рипа: Tracks+.CUE
Битрейт: lossless
Продолжительность: 00:52:59

Треклист:

01. Unbreakable (5:46)
02. Just a kiss away (5:20)
03. Get down on the funk (4:03)
04. Friday night (6:08)
05. Stars in your eyes (5:23)
06. Rockin' after midnight (6:12)
07. Soulchild (5:14)
08. Old school (4:43)
09. NLFU Funk (5:23)
10. Bow down (4:48)
Nils Landgren - trombone & vocals
Magnum Coltrane Price - bass & vocals
Andy Pfeiler - guitar & vocals
Jonas Wall - saxes
Petter Bergander - keyboards
Robert Ikiz - drums
with
Ray Parker Jr. - guitar & vocals
Randy Brecker - trumpet
Tim Hagans - trumpet

Код:

Exact Audio Copy V1.0 beta 3 from 29. August 2011

EAC extraction logfile from 24. July 2017, 16:37

Nils Landgren Funk Unit / Unbreakable [ACT 9039-2}

Used drive  : ASUS    DRW-24F1ST   a   Adapter: 0  ID: 0

Read mode               : Secure
Utilize accurate stream : Yes
Defeat audio cache      : Yes
Make use of C2 pointers : No

Read offset correction                      : 6
Overread into Lead-In and Lead-Out          : No
Fill up missing offset samples with silence : Yes
Delete leading and trailing silent blocks   : No
Null samples used in CRC calculations       : Yes
Used interface                              : Native Win32 interface for Win NT & 2000
Gap handling                                : Appended to previous track

Used output format              : User Defined Encoder
Selected bitrate                : 128 kBit/s
Quality                         : High
Add ID3 tag                     : No
Command line compressor         : C:\Program Files (x86)\Exact Audio Copy\FLAC\FLAC.EXE
Additional command line options : -8 -V -T "ARTIST=%artist%" -T "TITLE=%title%" -T "ALBUM=%albumtitle%" -T "DATE=%year%" -T "TRACKNUMBER=%tracknr%" -T "TOTALTRACKS=%numtracks%" -T "GENRE=%genre%" -T "ALBUMARTIST=%albumartist%" -T "ALBUM ARTIST=%albumartist%" -T "COMMENT=EAC Secure Mode, Test & Copy, AccurateRip, FLAC -8" %source%

TOC of the extracted CD

     Track |   Start  |  Length  | Start sector | End sector
    ---------------------------------------------------------
        1  |  0:00.00 |  5:46.19 |         0    |    25968
        2  |  5:46.19 |  5:19.65 |     25969    |    49958
        3  | 11:06.09 |  4:02.73 |     49959    |    68181
        4  | 15:09.07 |  6:07.44 |     68182    |    95750
        5  | 21:16.51 |  5:23.28 |     95751    |   120003
        6  | 26:40.04 |  6:12.15 |    120004    |   147918
        7  | 32:52.19 |  5:13.44 |    147919    |   171437
        8  | 38:05.63 |  4:42.61 |    171438    |   192648
        9  | 42:48.49 |  5:23.00 |    192649    |   216873
       10  | 48:11.49 |  4:47.46 |    216874    |   238444

Track  1

     Filename K:\EAC\01 - Unbreakable.wav

     Pre-gap length  0:00:02.00

     Peak level 100.0 %
     Extraction speed 1.7 X
     Track quality 99.9 %
     Test CRC 07AE504A
     Copy CRC 07AE504A
     Track not present in AccurateRip database
     Copy OK

Track  2

     Filename K:\EAC\02 - Just a kiss away.wav

     Peak level 100.0 %
     Extraction speed 2.1 X
     Track quality 100.0 %
     Test CRC 5C54EC49
     Copy CRC 5C54EC49
     Track not present in AccurateRip database
     Copy OK

Track  3

     Filename K:\EAC\03 - Get down on the funk.wav

     Peak level 100.0 %
     Extraction speed 2.2 X
     Track quality 100.0 %
     Test CRC 0813A8AE
     Copy CRC 0813A8AE
     Track not present in AccurateRip database
     Copy OK

Track  4

     Filename K:\EAC\04 - Friday night.wav

     Peak level 100.0 %
     Extraction speed 2.5 X
     Track quality 100.0 %
     Test CRC DE95F539
     Copy CRC DE95F539
     Track not present in AccurateRip database
     Copy OK

Track  5

     Filename K:\EAC\05 - Stars in your eyes.wav

     Peak level 100.0 %
     Extraction speed 2.4 X
     Track quality 99.9 %
     Test CRC E53327A1
     Copy CRC E53327A1
     Track not present in AccurateRip database
     Copy OK

Track  6

     Filename K:\EAC\06 - Rockin' after midnight.wav

     Peak level 100.0 %
     Extraction speed 2.7 X
     Track quality 99.9 %
     Test CRC DE45E439
     Copy CRC DE45E439
     Track not present in AccurateRip database
     Copy OK

Track  7

     Filename K:\EAC\07 - Soulchild.wav

     Peak level 100.0 %
     Extraction speed 3.0 X
     Track quality 100.0 %
     Test CRC 88028641
     Copy CRC 88028641
     Track not present in AccurateRip database
     Copy OK

Track  8

     Filename K:\EAC\08 - Old school.wav

     Peak level 100.0 %
     Extraction speed 3.1 X
     Track quality 100.0 %
     Test CRC D06E56DF
     Copy CRC D06E56DF
     Track not present in AccurateRip database
     Copy OK

Track  9

     Filename K:\EAC\09 - NLFU Funk.wav

     Peak level 100.0 %
     Extraction speed 3.0 X
     Track quality 99.9 %
     Test CRC FE167A3C
     Copy CRC FE167A3C
     Track not present in AccurateRip database
     Copy OK

Track 10

     Filename K:\EAC\10 - Bow down.wav

     Peak level 100.0 %
     Extraction speed 3.4 X
     Track quality 100.0 %
     Test CRC B9C430B3
     Copy CRC B9C430B3
     Track not present in AccurateRip database
     Copy OK

None of the tracks are present in the AccurateRip database

No errors occurred

End of status report

==== Log checksum 5F2D89AE3EAB8E04F9ADC49B4289366F5A72BE0F4C038A55E720D81D3A734A52 ====

Код:

REM GENRE Funk
REM DATE 2017
REM DISCID 970C6B0A
REM COMMENT "ExactAudioCopy v1.0b3"
PERFORMER "Nils Landgren Funk Unit"
TITLE "Unbreakable {ACT 9039-2}"
FILE "01 - Unbreakable.wav" WAVE
  TRACK 01 AUDIO
    TITLE "Unbreakable"
    PERFORMER "Nils Landgren Funk Unit"
    FLAGS DCP
    INDEX 01 00:00:00
FILE "02 - Just a kiss away.wav" WAVE
  TRACK 02 AUDIO
    TITLE "Just a kiss away"
    PERFORMER "Nils Landgren Funk Unit"
    FLAGS DCP
    INDEX 01 00:00:00
FILE "03 - Get down on the funk.wav" WAVE
  TRACK 03 AUDIO
    TITLE "Get down on the funk"
    PERFORMER "Nils Landgren Funk Unit"
    FLAGS DCP
    INDEX 01 00:00:00
FILE "04 - Friday night.wav" WAVE
  TRACK 04 AUDIO
    TITLE "Friday night"
    PERFORMER "Nils Landgren Funk Unit"
    FLAGS DCP
    INDEX 01 00:00:00
FILE "05 - Stars in your eyes.wav" WAVE
  TRACK 05 AUDIO
    TITLE "Stars in your eyes"
    PERFORMER "Nils Landgren Funk Unit"
    FLAGS DCP
    INDEX 01 00:00:00
FILE "06 - Rockin' after midnight.wav" WAVE
  TRACK 06 AUDIO
    TITLE "Rockin' after midnight"
    PERFORMER "Nils Landgren Funk Unit"
    FLAGS DCP
    INDEX 01 00:00:00
FILE "07 - Soulchild.wav" WAVE
  TRACK 07 AUDIO
    TITLE "Soulchild"
    PERFORMER "Nils Landgren Funk Unit"
    FLAGS DCP
    INDEX 01 00:00:00
FILE "08 - Old school.wav" WAVE
  TRACK 08 AUDIO
    TITLE "Old school"
    PERFORMER "Nils Landgren Funk Unit"
    FLAGS DCP
    INDEX 01 00:00:00
FILE "09 - NLFU Funk.wav" WAVE
  TRACK 09 AUDIO
    TITLE "NLFU Funk"
    PERFORMER "Nils Landgren Funk Unit"
    FLAGS DCP
    INDEX 01 00:00:00
FILE "10 - Bow down.wav" WAVE
  TRACK 10 AUDIO
    TITLE "Bow down"
    PERFORMER "Nils Landgren Funk Unit"
    FLAGS DCP
    INDEX 01 00:00:00

Код:

AUDIOCHECKER v2.0 beta (build 457) - by Dester - opdester@freemail hu
~~~~~~~~~~~~~~~~~~~~~~~~~~~~~~~~~~

Started at: 27. 08. 2017. - 23:03.41
10 files found

01 -===- D:\2017. Nils Landgren Funk Unit - Unbreakable {ACT 9039-2}\01 - Unbreakable.flac
  Extracted successfully
  Conclusion: this track is CDDA with probability 100%
  Tempfile successfully deleted.

02 -===- D:\2017. Nils Landgren Funk Unit - Unbreakable {ACT 9039-2}\02 - Just a kiss away.flac
  Extracted successfully
  Conclusion: this track is CDDA with probability 99%
  Tempfile successfully deleted.

03 -===- D:\2017. Nils Landgren Funk Unit - Unbreakable {ACT 9039-2}\03 - Get down on the funk.flac
  Extracted successfully
  Conclusion: this track is CDDA with probability 99%
  Tempfile successfully deleted.

04 -===- D:\2017. Nils Landgren Funk Unit - Unbreakable {ACT 9039-2}\04 - Friday night.flac
  Extracted successfully
  Conclusion: this track is CDDA with probability 99%
  Tempfile successfully deleted.

05 -===- D:\2017. Nils Landgren Funk Unit - Unbreakable {ACT 9039-2}\05 - Stars in your eyes.flac
  Extracted successfully
  Conclusion: this track is CDDA with probability 100%
  Tempfile successfully deleted.

06 -===- D:\2017. Nils Landgren Funk Unit - Unbreakable {ACT 9039-2}\06 - Rockin' after midnight.flac
  Extracted successfully
  Conclusion: this track is CDDA with probability 100%
  Tempfile successfully deleted.

07 -===- D:\2017. Nils Landgren Funk Unit - Unbreakable {ACT 9039-2}\07 - Soulchild.flac
  Extracted successfully
  Conclusion: this track is CDDA with probability 100%
  Tempfile successfully deleted.

08 -===- D:\2017. Nils Landgren Funk Unit - Unbreakable {ACT 9039-2}\08 - Old school.flac
  Extracted successfully
  Conclusion: this track is CDDA with probability 100%
  Tempfile successfully deleted.

09 -===- D:\2017. Nils Landgren Funk Unit - Unbreakable {ACT 9039-2}\09 - NLFU Funk.flac
  Extracted successfully
  Conclusion: this track is CDDA with probability 100%
  Tempfile successfully deleted.

10 -===- D:\2017. Nils Landgren Funk Unit - Unbreakable {ACT 9039-2}\10 - Bow down.flac
  Extracted successfully
  Conclusion: this track is CDDA with probability 100%
  Tempfile successfully deleted.

Finished at: 27. 08. 2017. - 23:06.36 (operation time: 0:02.54)

Этот торрент недоступен для скачивания без регистрации, однако доступен по публичной magnet-ссылке (источники с публичных трекеров). Перед использованием ссылки прочтите, пожалуйста Пользовательское соглашение, а также как можно дольше оставайтесь на раздаче! Для того, чтобы скачать сам торрент-файл (который видит больше источников), а также для того, чтобы поблагодарить релизера, вам необходимо зарегистрироваться. Если регистрироваться лень - вы можете также попробовать скачать релиз по нашим партнерским ссылкам ниже. Кроме того, зарегистрированным пользователям не показывается всплывающая реклама при скачивании.

[underverse.me].t87847.torrent
Трекер: Зарегистрирован   [ 27.08.2017 20:07 ]  

Статус: проверено (by Darkferse at 27.08.2017 20:15)
Поблагодарили: пока никто не поблагодарил...
Тип торрента: публичный - доступные источники с открытых трекеров: 
Размер: 389 MB (занимает 0,09 DVDR, для записи нужно 1 болванка DVDR/RW)
 
 
Похожие темы
Форум Тема Автор Торрент Отв. Посл. сооб.
Jazz (Vocal Jazz, Swing) Nat King Cole - The World of Nat King Cole (2005) [MP3, VBR ~224 kbps] ZondeR
1 | 0

0 | 2496

12

28.04.2012 12:45

Jazz (Vocal Jazz) Diana Krall - Дискография (1993-2017) [MP3, 320 kbps CBR] Darkferse
10 | 6

0 | 1294

7

08.05.2017 18:45

Jazz (Vocal Jazz, Swing) Dean Martin - Swingin With Dino (2002) [MP3, 320 kbps] ZondeR
0 | 1

0 | 1746

7

20.08.2012 19:04

Jazz (Vocal Jazz) Ulita Knaus - Love In This Time (2017) [MP3, 320 kbps CBR] Darkferse
1 | 0

0 | 441

3

05.05.2017 07:52

Jazz (Vocal Jazz) Cecile Messyasz - Theo's Lullaby (2017) [MP3, 320 kbps CBR] Darkferse
2 | 0

0 | 454

3

05.05.2017 07:37

Jazz (Vocal Jazz, Soul) Eleni Naomi - Still I Wait (2017) [MP3, 320 kbps CBR] Darkferse
1 | 0

0 | 510

4

22.05.2017 16:35

Jazz (Vocal Jazz, Pop) Stephanie Hundertmark - Enjoy The View (2017) [MP3, 320 kbps CBR] Darkferse
3 | 0

0 | 520

2

22.05.2017 16:23

Jazz (Vocal Jazz, Pop) Robin Grant & The Standard - Good Girl (2017) [MP3, 320 kbps CBR] Darkferse
2 | 0

0 | 542

4

29.08.2017 09:21

Jazz (Vocal Jazz) Beas - Stolen Diamonds (2017) [MP3, 320 kbps CBR] Darkferse
1 | 0

0 | 537

4

31.05.2017 19:56

Jazz (Vocal Jazz) Stac - Perpetual (2017) [MP3, 320 kbps CBR] Darkferse
2 | 0

0 | 353

2

05.06.2017 20:29


Яндекс.Метрика powered by Sphinx


В Н И М А Н И Е
Сайт не распространяет и не хранит электронные версии произведений, а лишь бесплатно и без коммерческой выгоды (не требуя взамен платы,
SMS и т.д.) предоставляет доступ к создаваемому пользователями каталогу ссылок на торрент-файлы, которые содержат только списки хеш-сумм.
Убедительная просьба с жалобами обращаться напрямую к пользователю, разместившему торрент файл.

Вверх