Loading...
Error

Генрих VII: Король зимы / Henry VII The King of Winter (Джулия Кларк, Стюарт Эллиотт) [2013 г., документальный, история, исследования, HDTVRip 720p] VO (SDI Media) + Original (Eng) + Sub (Eng)

Статистика раздачи
Размер:  1,8 GB   |    Зарегистрирован:  3 месяца 14 дней   |    Скачан:  4 раза

Полного источника не было: 3 месяца 6 дней

Сидов:  0  |  0 KB/s  ]   Личеров:  0  |  0 KB/s  ]

* - сиды/пиры с внешних источников

   
 
Автор Сообщение

ARI71 Пол:Муж

09-Авг-2017 07:39

Генрих VII: Король зимы / Henry VII The King of Winter


Год выпуска: 2013
Жанр: документальный, история, исследования
Страна: Великобритания Lion Television, All 3 Media for BBC
Режиссер: Джулия Кларк, Стюарт Эллиотт
Автор и ведущий: Томас Пенн
Текст читает: Владимир Рыбальченко
Сюжет фильма:
Недавно коронованный Генрих VII женится на Елизавете Йоркской, чтобы создать новую династию. Эта история, история Тюдоровской Англии, полна великолепия и предательства.

Качество видео: HDTVRip 720p

Продолжительность: 00:59:01
Формат: MKV
Видео: x264, 1280x720, 4000 kbps
Аудио #1: русский, одноголосый [профессиональный, SDI Media], AC3 2.0, 192 kbps
Аудио #2: английский, оригинал, AC3 2.0, 192 kbps
Субтитры: тип: вшитые отключаемые, английский, формат: SRT

Автор рипа и постера: skorpionN

Код:

Общее
Уникальный идентификатор : 230181583020701952026080055726688760028 (0xAD2B5C3F2691D5C2BC6E72B2FFACF0DC)
Полное имя : D:\BBC_Henry VII Winter King_720p.mkv
Формат : Matroska
Версия формата : Version 4 / Version 2
Размер файла : 1,80 Гбайт
Продолжительность : 59 м.
Режим общего битрейта : Переменный
Общий поток : 4374 Кбит/сек
Дата кодирования : UTC 2017-08-08 08:51:36
Программа кодирования : mkvmerge v6.9.1 ('Blue Panther') 64bit built on Apr 18 2014 18:23:38
Библиотека кодирования : libebml v1.3.0 + libmatroska v1.4.1

Видео
Идентификатор : 1
Формат : AVC
Формат/Информация : Advanced Video Codec
Профиль формата : High@L4.1
Параметр CABAC формата : Да
Параметр ReFrames формата : 3 кадра
Идентификатор кодека : V_MPEG4/ISO/AVC
Продолжительность : 59 м.
Вид битрейта : Переменный
Битрейт : 4000 Кбит/сек
Максимальный битрейт : 8000 Кбит/сек
Ширина : 1280 пикселей
Высота : 720 пикселей
Соотношение сторон : 16:9
Режим частоты кадров : Постоянный
Частота кадров : 25,000 кадров/сек
Стандарт вещания : NTSC
Цветовое пространство : YUV
Субдискретизация насыщенности : 4:2:0
Битовая глубина : 8 бит
Тип развёртки : Прогрессивная
Бит/(Пиксели*Кадры) : 0.174
Размер потока : 1,61 Гбайт (89%)
Библиотека кодирования : x264 core 114
Настройки программы : cabac=1 / ref=3 / deblock=1:0:0 / analyse=0x3:0x113 / me=hex / subme=7 / psy=1 / psy_rd=1.00:0.00 / mixed_ref=1 / me_range=16 / chroma_me=1 / trellis=1 / 8x8dct=1 / cqm=2 / deadzone=21,11 / fast_pskip=1 / chroma_qp_offset=-4 / threads=6 / sliced_threads=0 / slices=1 / nr=0 / decimate=1 / interlaced=0 / constrained_intra=0 / bframes=3 / b_pyramid=0 / b_adapt=1 / b_bias=0 / direct=1 / weightb=1 / open_gop=0 / weightp=2 / keyint=250 / keyint_min=25 / scenecut=40 / intra_refresh=0 / rc_lookahead=40 / rc=2pass / mbtree=1 / bitrate=4000 / ratetol=1.0 / qcomp=0.60 / qpmin=5 / qpmax=69 / qpstep=4 / cplxblur=20.0 / qblur=0.5 / vbv_maxrate=8000 / vbv_bufsize=7995 / nal_hrd=vbr / ip_ratio=1.40 / aq=1:1.00
Default : Да
Forced : Нет
Цветовой диапазон : Limited
Основные цвета : BT.709
Характеристики трансфера : BT.709
Коэффициенты матрицы : BT.709

Аудио #1
Идентификатор : 2
Формат : AC-3
Формат/Информация : Audio Coding 3
Расширение режима : CM (complete main)
Параметр Endianness формата : Big
Идентификатор кодека : A_AC3
Продолжительность : 59 м.
Вид битрейта : Постоянный
Битрейт : 192 Кбит/сек
Каналы : 2 канала
Расположение каналов : Front: L R
Частота : 48,0 КГц
Частота кадров : 31,250 кадров/сек (1536 spf)
Метод сжатия : С потерями
Размер потока : 81,1 Мбайт (4%)
Язык : Russian
Default : Да
Forced : Нет

Аудио #2
Идентификатор : 3
Формат : AC-3
Формат/Информация : Audio Coding 3
Расширение режима : CM (complete main)
Параметр Endianness формата : Big
Идентификатор кодека : A_AC3
Продолжительность : 59 м.
Вид битрейта : Постоянный
Битрейт : 192 Кбит/сек
Каналы : 2 канала
Расположение каналов : Front: L R
Частота : 48,0 КГц
Частота кадров : 31,250 кадров/сек (1536 spf)
Метод сжатия : С потерями
Размер потока : 81,1 Мбайт (4%)
Язык : English
Default : Нет
Forced : Да

Текст
Идентификатор : 4
Формат : UTF-8
Идентификатор кодека : S_TEXT/UTF8
Идентификатор кодека/Информация : UTF-8 Plain Text
Язык : English
Default : Нет
Forced : Нет
picpicpicpicpic
Для увеличения картинки щелкните мышкой по превью

Этот торрент недоступен для скачивания без регистрации, однако доступен по публичной magnet-ссылке (источники с публичных трекеров). Перед использованием ссылки прочтите, пожалуйста Пользовательское соглашение, а также как можно дольше оставайтесь на раздаче! Для того, чтобы скачать сам торрент-файл (который видит больше источников), а также для того, чтобы поблагодарить релизера, вам необходимо зарегистрироваться. Если регистрироваться лень - вы можете также попробовать скачать релиз по нашим партнерским ссылкам ниже.

[underverse.me].t87089.torrent
Трекер: Зарегистрирован   [ 09.08.2017 07:39 ]  

Статус: проверено (by ARI71 at 09.08.2017 07:39)
Поблагодарили: пока никто не поблагодарил...
Тип торрента: публичный - доступные источники с открытых трекеров: 
Размер: 1,8 GB (занимает 0,41 DVDR, для записи нужно 1 болванка DVDR/RW)
 
 

Яндекс.Метрика powered by Sphinx


В Н И М А Н И Е
Сайт не распространяет и не хранит электронные версии произведений, а лишь бесплатно и без коммерческой выгоды (не требуя взамен платы,
SMS и т.д.) предоставляет доступ к создаваемому пользователями каталогу ссылок на торрент-файлы, которые содержат только списки хеш-сумм.
Убедительная просьба с жалобами обращаться напрямую к пользователю, разместившему торрент файл.

Вверх