Loading...
Error

Уилсон / Wilson (Крэйг Джонсон) [2017 г., комедия, BD-Remux] MVO (iTunes) + Original + Sub

Статистика раздачи
Размер:  25,29 GB   |    Зарегистрирован:  9 месяцев   |    Скачан:  2 раза

Полного источника не было: 6 месяцев

Сидов:  0  |  0 KB/s  ]   Личеров:  0  |  0 KB/s  ]

* - сиды/пиры с внешних источников

   
 
Автор Сообщение

makkol Пол:Муж

28-Июл-2017 11:52

Уилсон / Wilson


Год выпуска: 2017
Жанр: комедия
Производство: США [Ad Hominem Enterprises]
Режиссер: Крэйг Джонсон
В ролях: Вуди Харрельсон, Сэнди Ойан, Шон Браун, Джеймс Роберт Миллер, Бретт Гельман, Мэри Линн Райскаб, Джуди Грир, Туссен Моррисон, Эндрю Хоутри, Ричард Оомс
Сюжет фильма:
Уилсон - одинокий, невротичный и до забавного честный человек среднего возраста, он не любит людей, но обожает собак. Он воссоединяется со своей бывшей женой и получает невероятный заряд счастья, когда узнает, что у него есть дочь-подросток, которую он никогда не встречал. В своем уникально возмутительном и слегка вывернутом наизнанку путём, Уилсон устанавливает, что воссоединение с ней - это может быть его последний шанс завести семью.

  • Мировая премьера: 22 января 2017


Качество видео: BD-Remux

Продолжительность: 01:34:29
Формат: MKV
Видео: MPEG-4 AVC, 1920x1080 (16:9), 23.976 fps, 34.6 Mbps
Аудио #1: русский, профессиональный многоголосый закадровый (iTunes), AC3 5.1, 48 kHz, 384 kbps
Аудио #2: английский, оригинал, DTS-HD MA 5.1, 48 kHz, 3325 kbps
Субтитры: русские, английские вшитые отключаемые

Код:

Format : Matroska
Format version : Version 4 / Version 2
File size : 25.3 GiB
Duration : 1 h 34 min
Overall bit rate mode : Variable
Overall bit rate : 38.3 Mb/s
Encoded date : UTC 2017-07-27 23:37:18
Writing application : mkvmerge v14.0.0 ('Flow') 64bit
Writing library : libebml v1.3.4 + libmatroska v1.4.5

Video
ID : 1
Format : AVC
Format/Info : Advanced Video Codec
Format profile : High@L4.1
Format settings, CABAC : Yes
Format settings, ReFrames : 4 frames
Codec ID : V_MPEG4/ISO/AVC
Duration : 1 h 34 min
Bit rate mode : Variable
Bit rate : 34.6 Mb/s
Maximum bit rate : 37.0 Mb/s
Width : 1 920 pixels
Height : 1 080 pixels
Display aspect ratio : 16:9
Frame rate mode : Constant
Frame rate : 23.976 (24000/1001) FPS
Color space : YUV
Chroma subsampling : 4:2:0
Bit depth : 8 bits
Scan type : Progressive
Bits/(Pixel*Frame) : 0.696
Stream size : 22.8 GiB (90%)
Language : English
Default : Yes
Forced : No

Audio #1
ID : 2
Format : AC-3
Format/Info : Audio Coding 3
Format settings, Endianness : Big
Codec ID : A_AC3
Duration : 1 h 34 min
Bit rate mode : Constant
Bit rate : 384 kb/s
Channel(s) : 6 channels
Channel positions : Front: L C R, Side: L R, LFE
Sampling rate : 48.0 kHz
Frame rate : 31.250 FPS (1536 spf)
Bit depth : 16 bits
Compression mode : Lossy
Stream size : 260 MiB (1%)
Title : iTunes
Language : Russian
Service kind : Complete Main
Default : Yes
Forced : No

Audio #2
ID : 3
Format : DTS
Format/Info : Digital Theater Systems
Format profile : MA / Core
Mode : 16
Format settings, Endianness : Big
Codec ID : A_DTS
Duration : 1 h 34 min
Bit rate mode : Variable / Constant
Bit rate : 3 325 kb/s / 1 509 kb/s
Channel(s) : 6 channels
Channel positions : Front: L C R, Side: L R, LFE
Sampling rate : 48.0 kHz
Frame rate : 93.750 FPS (512 spf)
Bit depth : 24 bits
Compression mode : Lossless / Lossy
Stream size : 2.19 GiB (9%)
Title : Original
Language : English
Default : No
Forced : No

Text #1
ID : 4
Format : UTF-8
Codec ID : S_TEXT/UTF8
Codec ID/Info : UTF-8 Plain Text
Duration : 1 h 33 min
Bit rate : 96 b/s
Count of elements : 1308
Stream size : 66.3 KiB (0%)
Title : Full
Language : Russian
Default : No
Forced : No

Text #2
ID : 5
Format : UTF-8
Codec ID : S_TEXT/UTF8
Codec ID/Info : UTF-8 Plain Text
Duration : 1 h 28 min
Bit rate : 65 b/s
Count of elements : 1577
Stream size : 42.5 KiB (0%)
Title : Full
Language : English
Default : No
Forced : No

Text #3
ID : 6
Format : UTF-8
Codec ID : S_TEXT/UTF8
Codec ID/Info : UTF-8 Plain Text
Duration : 1 h 28 min
Bit rate : 70 b/s
Count of elements : 1711
Stream size : 45.4 KiB (0%)
Title : SDH
Language : English
Default : No
Forced : No

Text #4
ID : 7
Format : UTF-8
Codec ID : S_TEXT/UTF8
Codec ID/Info : UTF-8 Plain Text
Duration : 1 h 29 min
Bit rate : 80 b/s
Count of elements : 1713
Stream size : 52.5 KiB (0%)
Title : SDH (Colored)
Language : English
Default : No
Forced : No

Menu
00:00:00.000 : en:Chapter 1
00:04:02.492 : en:Chapter 2
00:07:55.642 : en:Chapter 3
00:10:50.567 : en:Chapter 4
00:15:34.183 : en:Chapter 5
00:18:46.042 : en:Chapter 6
00:21:33.918 : en:Chapter 7
00:25:23.105 : en:Chapter 8
00:31:35.435 : en:Chapter 9
00:36:17.717 : en:Chapter 10
00:41:33.074 : en:Chapter 11
00:45:02.074 : en:Chapter 12
00:50:21.185 : en:Chapter 13
00:53:01.178 : en:Chapter 14
00:55:47.844 : en:Chapter 15
00:59:14.509 : en:Chapter 16
01:03:24.217 : en:Chapter 17
01:06:02.750 : en:Chapter 18
01:09:37.507 : en:Chapter 19
01:12:45.361 : en:Chapter 20
01:17:21.971 : en:Chapter 21
01:20:29.825 : en:Chapter 22
01:25:38.216 : en:Chapter 23
01:27:43.592 : en:Chapter 24
Релиз:

picpicpicpicpic
Для увеличения картинки щелкните мышкой по превью

Этот торрент недоступен для скачивания без регистрации, однако доступен по публичной magnet-ссылке (источники с публичных трекеров). Перед использованием ссылки прочтите, пожалуйста Пользовательское соглашение, а также как можно дольше оставайтесь на раздаче! Для того, чтобы скачать сам торрент-файл (который видит больше источников), а также для того, чтобы поблагодарить релизера, вам необходимо зарегистрироваться. Если регистрироваться лень - вы можете также попробовать скачать релиз по нашим партнерским ссылкам ниже. Кроме того, зарегистрированным пользователям не показывается всплывающая реклама при скачивании.

[underverse.me].t86732.torrent
Трекер: Зарегистрирован   [ 28.07.2017 11:52 ]  

Статус: T временная (by makkol at 28.07.2017 11:53)
Поблагодарили: пока никто не поблагодарил...
Тип торрента: публичный - доступные источники с открытых трекеров: 
Размер: 25,29 GB (занимает 5,78 DVDR, для записи нужно 6 болванок DVDR/RW)
 
 
Похожие темы
Форум Тема Автор Торрент Отв. Посл. сооб.
T Зарубежное кино [DVDRip, Low-Res HDRip, и т.д.] Уилсон / Wilson (Крэйг Джонсон) [2017 г., комедия, BDRip] MVO (iTunes) makkol
87 | 4

0 | 743

15

28.07.2017 11:29

T Зарубежное кино [DVDRip, Low-Res HDRip, и т.д.] Уилсон / Wilson (Крэйг Джонсон) [2017 г., комедия, HDTVRip] MVO (Синема УС) makkol
13 | 2

0 | 678

9

20.05.2017 10:56

T Зарубежное кино [DVDRip, Low-Res HDRip, и т.д.] Уилсон / Wilson (Крэйг Джонсон) [2017 г., комедия, HDRip] MVO (Синема УС) makkol
7 | 3

0 | 543

6

07.06.2017 22:11

Зарубежное кино [DVDRip, Low-Res HDRip, и т.д.] Уилсон / Wilson (Крэйг Джонсон / Craig Johnson) [2017 г., комедия, BDRip] MVO (Paradox & Omskbird records, без цензуры) + Original (Eng) 90ytr90
2 | 0

0 | 665

5

09.07.2017 12:14

T Зарубежное кино [HDDVDRip / BDRip / WEB-DL / HDTV 1080/720р] Уилсон / Wilson (Крэйг Джонсон) [2017 г., комедия, BDRip 1080p] MVO (iTunes) + Original + Sub makkol
7 | 2

0 | 938

8

28.07.2017 11:43

T Зарубежное кино [HDDVDRip / BDRip / WEB-DL / HDTV 1080/720р] Уилсон / Wilson (Крэйг Джонсон) [2017 г., комедия, BDRip 720p] MVO (iTunes) + Original + Sub makkol
29 | 2

0 | 888

6

28.07.2017 11:36

T Зарубежное кино [HDDVDRip / BDRip / WEB-DL / HDTV 1080/720р] Уилсон / Wilson (Крэйг Джонсон / Craig Johnson) [2017 г., комедия, BDRip 1080p] MVO (Paradox & Omskbird records, без цензуры) 90ytr90
0 | 3

0 | 464

4

04.07.2017 16:57

T Зарубежное кино [HDDVDRip / BDRip / WEB-DL / HDTV 1080/720р] Уилсон / Wilson (Крэйг Джонсон / Craig Johnson) [2017 г., комедия, BDRip 720p] MVO (Paradox & Omskbird records, без цензуры) 90ytr90
0 | 3

0 | 328

7

04.07.2017 17:03


Яндекс.Метрика powered by Sphinx


В Н И М А Н И Е
Сайт не распространяет и не хранит электронные версии произведений, а лишь бесплатно и без коммерческой выгоды (не требуя взамен платы,
SMS и т.д.) предоставляет доступ к создаваемому пользователями каталогу ссылок на торрент-файлы, которые содержат только списки хеш-сумм.
Убедительная просьба с жалобами обращаться напрямую к пользователю, разместившему торрент файл.

Вверх