Loading...
Error

Призрак в доспехах / Ghost in the Shell [2017] ( Руперт Сандерс) [Фантастика, боевик, триллер, драма, криминал, детектив] [BD-Remux] [1080p] [DD5.1] [Dub Rus,Ukr,Englis + Subs Rus ,Ukr, ENG] [ iTunes]

Статистика раздачи
Размер:  28,26 GB   |    Зарегистрирован:  10 месяцев   |    Скачан:  8 раз

Полного источника не было: 2 месяца 3 дня

Сидов:  0  |  0 KB/s  ]   Личеров:  0  |  0 KB/s  ]

* - сиды/пиры с внешних источников

   
 
Автор Сообщение

Nikolai.Baranov Пол:Муж

16-Июл-2017 11:57



Призрак в доспехах / Ghost in the Shell




Год выпуска: 2017
Выпущено: США , Arad Productions, DreamWorks, Grosvenor Park Productions
Жанр: Фантастика, боевик, триллер, драма, криминал, детектив
Продолжительность: 01:46:56


Озвучка 1: Дублированный - iTunes - Русский

Озвучка 2: Дублированный - iTunes - Украинский

Озвучка 3: Английский -Оригинал

Субтитры: Russian (Forced, iTunes), Russian (iTunes), Ukrainian (Forced, iTunes), Ukrainian (iTunes), English, English (SDH)





Режиссер:
Руперт Сандерс

В ролях: Скарлетт Йоханссон, Йохан Филип Асбек, Такеши Китано, Жюльетт Бинош, Майкл Питт, Чин Хань, Дануся Самал, Ласарус Ратуэре, Ютака Идзумихара, Таванда Маниймо

Светлое будущее, где что-то пошло не так. Мир погряз в Интернете и передовом протезировании. Каждое человеческое существо считает своим святым долгом вставить в уши антенны от Wi-Fi роутера, сделать пластическую операцию под Рикки Мартина или хотя бы залить в себя лимонад "Буратино" вместо крови. Между тем, в недрах могущественной корпорации тайно разрабатывается особый военизированный имплант, фактически не оставляющий в организме подопытного ни одного живого места. Получившийся в результате эксперимента гибрид зачисляют в качестве боевого агента в отдел по борьбе с электронным бандитизмом. И когда неизвестный хакер начинает виртуозно кошмарить бизнес, грубо проникая в мозги лучших ученых компании с помощью инородных предметов, только первый в мире киборг с полностью синтетическим телом и встроенным генератором случайных мыслей и эмоций способен остановить произвол.


Качество: BD-Remux 1080p Источник: Ghost.in.the.Shell.2017.COMPLETE.BD-Remux 1080p
Формат: MKV
Видео кодек: H264
Видео: 28,0 Мбит/сек, 1920х1080 (16.9), 23.976 кадр/сек, AVC (High@L4.1)(CABAC/4 Ref Frames)
Аудио кодек: AC3/DTS

Аудио #1:AC3, 384 Kbps, 48.0 KHz, 6 ch - Дублированный - iTunes - Русский

Аудио #2:DTS, 3968 Kbps, 48.0 KHz,6 ch - Дублированный - iTunes - Русский

Аудио #3:AC3, 384 Kbps, 48.0 KHz, 6 ch - Дублированный - iTunes - Украинский

Аудио #4: AC3, 384 Kbps, 48.0 KHz, 6 ch - English - Английский - Оригинал

Аудио #5: DTS, 3968 Kbps, 48.0 KHz,6 ch - English - Английский - Оригинал

Аудио #6: AC3, 192 Kbps, 48.0 KHz, 6 ch - English - Английский - Descriptive



Общее
Уникальный идентификатор : 234899009762109349276003905143578725710 (0xB0B7E7579F913D38802E2C986CBE8D4E)
Полное имя : C:\ХОББИ\ПИРАТИЯ(PIRATIYA)\ПРИЗРАК В ДОСПЕХАХ\GHOST_IN_THE_SHELL_2017_Rus_Ukr[DUB_iTuness]_Eng_DD5.1_N.B_BD-Remux_1080p\GHOST_IN_THE_SHELL_Rus_Ukr[DUB_iTuness]_Eng_DD5.1_N.B_BD-Remux_1080p.mkv
Формат : Matroska
Версия формата : Version 4 / Version 2
Размер файла : 28,1 Гбайт
Продолжительность : 1 ч. 46 м.
Режим общего битрейта : Переменный
Общий поток : 37,6 Мбит/сек
Название фильма : GHOST_IN_THE_SHELL_Rus_Ukr[DUB_iTuness]_Eng_DD5.1_N.B_BD-Remux_1080p
Дата кодирования : UTC 2017-07-16 08:23:19
Программа кодирования : mkvmerge v13.0.0 ('The Juggler') 64bit
Библиотека кодирования : libebml v1.3.4 + libmatroska v1.4.5

Видео
Идентификатор : 1
Формат : AVC
Формат/Информация : Advanced Video Codec
Профиль формата : High@L4.1
Параметр CABAC формата : Да
Параметр RefFrames формата : 4 кадра
Идентификатор кодека : V_MPEG4/ISO/AVC
Продолжительность : 1 ч. 46 м.
Вид битрейта : Переменный
Битрейт : 28,0 Мбит/сек
Максимальный битрейт : 30,0 Мбит/сек
Ширина : 1920 пикселей
Высота : 1080 пикселей
Соотношение сторон : 16:9
Режим частоты кадров : Постоянный
Частота кадров : 23,976 (24000/1001) кадра/сек
Цветовое пространство : YUV
Субдискретизация насыщенности : 4:2:0
Битовая глубина : 8 бит
Тип развёртки : Прогрессивная
Бит/(Пиксели*Кадры) : 0.564
Размер потока : 20,9 Гбайт (75%)
Заголовок : GHOST_IN_THE_SHELL_Rus_Ukr[DUB_iTuness]_Eng_DD5.1_N.B_BD-Remux_1080p
Язык : Russian
Default : Да
Forced : Нет

Аудио #1
Идентификатор : 11
Формат : AC-3
Формат/Информация : Audio Coding 3
Параметр Endianness формата : Big
Идентификатор кодека : A_AC3
Продолжительность : 1 ч. 46 м.
Вид битрейта : Постоянный
Битрейт : 384 Кбит/сек
Каналы : 6 каналов
Расположение каналов : Front: L C R, Side: L R, LFE
Частота : 48,0 КГц
Частота кадров : 31,250 кадров/сек (1536 SPF)
Битовая глубина : 16 бит
Метод сжатия : С потерями
Размер потока : 294 Мбайт (1%)
Заголовок : Rus DUB iTuness @DD5.1 AC3 ,384 Kbps, 48.0 KHz, 6 ch
Язык : Russian
ServiceKind/String : Complete Main
Default : Да
Forced : Нет

Аудио #2
Идентификатор : 12
Формат : DTS
Формат/Информация : Digital Theater Systems
Режим : 16
Параметр Endianness формата : Big
Идентификатор кодека : A_DTS
Продолжительность : 1 ч. 46 м.
Вид битрейта : Постоянный
Битрейт : 3968 Кбит/сек
Каналы : 6 каналов
Расположение каналов : Front: L C R, Side: L R, LFE
Частота : 48,0 КГц
Частота кадров : 46,875 кадров/сек (1024 SPF)
Битовая глубина : 16 бит
Метод сжатия : С потерями
Размер потока : 2,96 Гбайт (11%)
Заголовок : Rus DUB iTuness @DTS,3968 Kbps, 48.0 KHz, 6 ch
Язык : Russian
Default : Нет
Forced : Нет

Аудио #3
Идентификатор : 13
Формат : AC-3
Формат/Информация : Audio Coding 3
Параметр Endianness формата : Big
Идентификатор кодека : A_AC3
Продолжительность : 1 ч. 46 м.
Вид битрейта : Постоянный
Битрейт : 384 Кбит/сек
Каналы : 6 каналов
Расположение каналов : Front: L C R, Side: L R, LFE
Частота : 48,0 КГц
Частота кадров : 31,250 кадров/сек (1536 SPF)
Битовая глубина : 16 бит
Метод сжатия : С потерями
Размер потока : 294 Мбайт (1%)
Заголовок : Ukr DUB iTuness @DD5.1 AC3 ,384 Kbps, 48.0 KHz, 6 ch
Язык : Ukrainian
ServiceKind/String : Complete Main
Default : Нет
Forced : Нет

Аудио #4
Идентификатор : 14
Формат : AC-3
Формат/Информация : Audio Coding 3
Параметр Endianness формата : Big
Идентификатор кодека : A_AC3
Продолжительность : 1 ч. 46 м.
Вид битрейта : Постоянный
Битрейт : 384 Кбит/сек
Каналы : 6 каналов
Расположение каналов : Front: L C R, Side: L R, LFE
Частота : 48,0 КГц
Частота кадров : 31,250 кадров/сек (1536 SPF)
Битовая глубина : 16 бит
Метод сжатия : С потерями
Размер потока : 294 Мбайт (1%)
Заголовок : Original@DD5.1 AC3 , 384 Kbps, 48.0 KHz, 6 ch
Язык : English
ServiceKind/String : Complete Main
Default : Нет
Forced : Нет

Аудио #5
Идентификатор : 15
Формат : AC-3
Формат/Информация : Audio Coding 3
Параметр Endianness формата : Big
Идентификатор кодека : A_AC3
Продолжительность : 1 ч. 46 м.
Вид битрейта : Постоянный
Битрейт : 384 Кбит/сек
Каналы : 6 каналов
Расположение каналов : Front: L C R, Side: L R, LFE
Частота : 48,0 КГц
Частота кадров : 31,250 кадров/сек (1536 SPF)
Битовая глубина : 16 бит
Метод сжатия : С потерями
Размер потока : 294 Мбайт (1%)
Заголовок : Descriptive Original@DD5.1 AC3 , 384 Kbps, 48.0 KHz, 6 ch
Язык : English
ServiceKind/String : Complete Main
Default : Нет
Forced : Нет

Аудио #6
Идентификатор : 16
Формат : DTS
Формат/Информация : Digital Theater Systems
Режим : 16
Параметр Endianness формата : Big
Идентификатор кодека : A_DTS
Продолжительность : 1 ч. 46 м.
Вид битрейта : Постоянный
Битрейт : 3968 Кбит/сек
Каналы : 6 каналов
Расположение каналов : Front: L C R, Side: L R, LFE
Частота : 48,0 КГц
Частота кадров : 46,875 кадров/сек (1024 SPF)
Битовая глубина : 16 бит
Метод сжатия : С потерями
Размер потока : 2,96 Гбайт (11%)
Заголовок : Original @DTS,3968 Kbps, 48.0 KHz, 6 ch
Язык : English
Default : Нет
Forced : Нет

Текст #1
Идентификатор : 2
Формат : PGS
Режим смешивания : zlib
Идентификатор кодека : S_HDMV/PGS
Идентификатор кодека/Информация : Picture based subtitle format used on BDs/HD-DVDs
Продолжительность : 1 ч. 44 м.
Битрейт : 2817 бит/сек
ElementCount : 150
Размер потока : 2,11 Мбайт (0%)
Заголовок : Rus - Forced - iTunes
Язык : Russian
Default : Да
Forced : Нет

Текст #2
Идентификатор : 3
Формат : PGS
Режим смешивания : zlib
Идентификатор кодека : S_HDMV/PGS
Идентификатор кодека/Информация : Picture based subtitle format used on BDs/HD-DVDs
Продолжительность : 1 ч. 44 м.
Битрейт : 31,7 Кбит/сек
ElementCount : 1832
Размер потока : 23,8 Мбайт (0%)
Заголовок : Rus - iTunes
Язык : Russian
Default : Нет
Forced : Нет

Текст #3
Идентификатор : 4
Формат : UTF-8
Идентификатор кодека : S_TEXT/UTF8
Идентификатор кодека/Информация : UTF-8 Plain Text
Продолжительность : 1 ч. 44 м.
Битрейт : 56 бит/сек
ElementCount : 916
Размер потока : 43,0 Кбайт (0%)
Заголовок : Rus - iTunes
Язык : Russian
Default : Нет
Forced : Нет

Текст #4
Идентификатор : 5
Формат : PGS
Режим смешивания : zlib
Идентификатор кодека : S_HDMV/PGS
Идентификатор кодека/Информация : Picture based subtitle format used on BDs/HD-DVDs
Продолжительность : 1 ч. 44 м.
Битрейт : 2816 бит/сек
ElementCount : 152
Размер потока : 2,11 Мбайт (0%)
Заголовок : Ukr - Forced - iTunes
Язык : Ukrainian
Default : Нет
Forced : Нет

Текст #5
Идентификатор : 6
Формат : PGS
Режим смешивания : zlib
Идентификатор кодека : S_HDMV/PGS
Идентификатор кодека/Информация : Picture based subtitle format used on BDs/HD-DVDs
Продолжительность : 1 ч. 44 м.
Битрейт : 32,2 Кбит/сек
ElementCount : 1940
Размер потока : 24,2 Мбайт (0%)
Заголовок : Ukr - iTunes
Язык : Ukrainian
Default : Нет
Forced : Нет

Текст #6
Идентификатор : 7
Формат : UTF-8
Идентификатор кодека : S_TEXT/UTF8
Идентификатор кодека/Информация : UTF-8 Plain Text
Продолжительность : 1 ч. 44 м.
Битрейт : 57 бит/сек
ElementCount : 971
Размер потока : 44,1 Кбайт (0%)
Заголовок : Ukr - iTunes
Язык : Ukrainian
Default : Нет
Forced : Нет

Текст #7
Идентификатор : 8
Формат : PGS
Режим смешивания : zlib
Идентификатор кодека : S_HDMV/PGS
Идентификатор кодека/Информация : Picture based subtitle format used on BDs/HD-DVDs
Продолжительность : 1 ч. 34 м.
Битрейт : 21,7 Кбит/сек
ElementCount : 1770
Размер потока : 14,7 Мбайт (0%)
Заголовок : Original
Язык : English
Default : Нет
Forced : Нет

Текст #8
Идентификатор : 9
Формат : UTF-8
Идентификатор кодека : S_TEXT/UTF8
Идентификатор кодека/Информация : UTF-8 Plain Text
Продолжительность : 1 ч. 34 м.
Битрейт : 32 бит/сек
ElementCount : 905
Размер потока : 22,9 Кбайт (0%)
Заголовок : Original
Язык : English
Default : Нет
Forced : Нет

Текст #9
Идентификатор : 10
Формат : PGS
Режим смешивания : zlib
Идентификатор кодека : S_HDMV/PGS
Идентификатор кодека/Информация : Picture based subtitle format used on BDs/HD-DVDs
Продолжительность : 1 ч. 35 м.
Битрейт : 27,9 Кбит/сек
ElementCount : 2258
Размер потока : 19,0 Мбайт (0%)
Заголовок : SDH
Язык : English
Default : Нет
Forced : Нет

Меню
00:00:00.000 : en:Глава 01 / en:Глава 01 / en:Глава 01 / en:Глава 01 / en:Глава 01 / en:Глава 01 / en:Глава 01 / en:Глава 01 / en:Глава 01 / en:Глава 01 / en:Глава 01 / en:Глава 01 / en:Глава 01 / en:Глава 01 / en:Глава 01 / en:Глава 01










Релиз от: Nikolai.Baranov & PIRATIYA







Этот торрент недоступен для скачивания без регистрации, однако доступен по публичной magnet-ссылке (источники с публичных трекеров). Перед использованием ссылки прочтите, пожалуйста Пользовательское соглашение, а также как можно дольше оставайтесь на раздаче! Для того, чтобы скачать сам торрент-файл (который видит больше источников), а также для того, чтобы поблагодарить релизера, вам необходимо зарегистрироваться. Если регистрироваться лень - вы можете также попробовать скачать релиз по нашим партнерским ссылкам ниже. Кроме того, зарегистрированным пользователям не показывается всплывающая реклама при скачивании.

[underverse.me].t86275.torrent
Трекер: Зарегистрирован   [ 16.07.2017 11:57 ]  

Статус: # сомнительно (by makkol at 16.07.2017 13:00)
Поблагодарили: 1 человек
Тип торрента: публичный - доступные источники с открытых трекеров: 
Размер: 28,26 GB (занимает 6,46 DVDR, для записи нужно 7 болванок DVDR/RW)
 
 
Похожие темы
Форум Тема Автор Торрент Отв. Посл. сооб.
* Зарубежное кино [DVDRip, Low-Res HDRip, и т.д.] Призрак в доспехах / Ghost in the Shell (Руперт Сандерс / Rupert Sanders) [2017 г., фантастика, боевик, триллер, драма, криминал, детектив, WEB-DLRip-AVC] Dub (Rus.iTunes) + Dub (Ukr.iTunes) +... 90ytr90
2 | 4

0 | 547

24

06.07.2017 21:55

Зарубежное кино [DVDRip, Low-Res HDRip, и т.д.] Призрак в доспехах / Ghost in the Shell (Руперт Сандерс / Rupert Sanders) [2017 г., фантастика, боевик, триллер, драма, криминал, детектив, BDRip-AVC] Dub + Original (Eng) + Sub (Rus, Eng) 90ytr90
25 | 7

0 | 234

6

24.02.2018 15:18

Зарубежное кино [DVDRip, Low-Res HDRip, и т.д.] Призрак в доспехах / Ghost in the Shell (Руперт Сандерс / Rupert Sanders) [2017 г., фантастика, боевик, триллер, драма, криминал, детектив, BDRip-AVC] Dub + Sub (Rus) 90ytr90
18 | 3

0 | 245

5

24.02.2018 15:22

Зарубежное кино [DVDRip, Low-Res HDRip, и т.д.] Призрак в доспехах / Ghost in the Shell (Руперт Сандерс / Rupert Sanders) [2017 г., фантастика, боевик, триллер, драма, криминал, детектив, BDRip] Dub + Original (Eng) 90ytr90
102 | 5

0 | 286

7

24.02.2018 15:26

Зарубежное кино [DVDRip, Low-Res HDRip, и т.д.] Призрак в доспехах / Ghost in the Shell (Руперт Сандерс / Rupert Sanders) [2017 г., фантастика, боевик, триллер, драма, криминал, детектив, BDRip] Dub + hardsub (Rus) 90ytr90
18 | 6

0 | 316

10

24.02.2018 15:32

Зарубежное кино [DVDRip, Low-Res HDRip, и т.д.] Призрак в доспехах / Ghost in the Shell (Руперт Сандерс / Rupert Sanders) [2017 г., фантастика, боевик, триллер, драма, криминал, детектив, HDRip] Dub + hardsub (Rus) 90ytr90
63 | 5

0 | 371

9

24.02.2018 15:42

xUSSR сериалы Призрак в кривом зеркале (4 серии из 4) (Вячеслав Лавров) [2015 г., детектив, криминал, WEB-DLRip] nemos
0 | 0

1 | 1382

27

17.04.2015 09:14

Аниме Призрак в доспехах / Kokaku kidotai / Ghost in the Shell (Осии Мамору / Mamoru Oshii) [1995 г., аниме, киберпанк, фэнтези, триллер, HDRip] Dub (ОРТ) + DVO (Гланц и Королева) + 2xAVO (Гланц, Гаврилов)... 90ytr90
3 | 0

0 | 585

3

17.11.2016 09:32

Аниме Призрак в доспехах / Kokaku kidotai / Ghost in the Shell (Осии Мамору / Mamoru Oshii) [1995 г., аниме, киберпанк, фэнтези, триллер, BDRip] Dub (ОРТ) + DVO (Tycoon) 90ytr90
1 | 1

0 | 542

7

17.11.2016 09:17

* Аниме HD-Video Призрак в доспехах / Kokaku kidotai / Ghost in the Shell (Осии Мамору / Mamoru Oshii) [1995 г., аниме, киберпанк, фэнтези, BDRip 1080p] Dub (ОРТ) + 2xDVO (Гланц и Королева, Tycoon) + 2xAVO (Гаврилов,... 90ytr90
23 | 0

0 | 854

10

17.11.2016 09:50



Последний раз редактировалось: Nikolai.Baranov (16.07.2017 14:16), всего редактировалось 1 раз

makkol Пол:Муж

16-Июл-2017 13:00

Rus DUB iTuness @DTS,3968 Kbps, 48.0 KHz, 6 ch #сомнительно

Яндекс.Метрика powered by Sphinx


В Н И М А Н И Е
Сайт не распространяет и не хранит электронные версии произведений, а лишь бесплатно и без коммерческой выгоды (не требуя взамен платы,
SMS и т.д.) предоставляет доступ к создаваемому пользователями каталогу ссылок на торрент-файлы, которые содержат только списки хеш-сумм.
Убедительная просьба с жалобами обращаться напрямую к пользователю, разместившему торрент файл.

Вверх