Loading...
Error

Остров преступников / Wyspa zloczyncow (Станислав Ендрыка) [1965 г., детектив, приключения, DVDRip] DVO (Levelin) + Original + Sub

Статистика раздачи
Размер:  1,46 GB   |    Зарегистрирован:  3 месяца 14 дней   |    Скачан:  1 раз

Полного источника не было: 3 месяца

Сидов:  0  |  0 KB/s  ]   Личеров:  0  |  0 KB/s  ]

* - сиды/пиры с внешних источников

   
 
Автор Сообщение

makkol Пол:Муж

09-Июл-2017 09:57

Остров преступников / Wyspa zloczynców


Год выпуска: 1965
Жанр: детектив, приключения
Производство: Польша [P.P. Film Polski]
Режиссер: Станислав Ендрыка
В ролях: Ян Машульски, Иоанна Едрыка, Рышард Петруски, Александр Фогель, Ян Кочер, Мацей Блажеёвски, Рышард Гебицки, Гжегож Липсон, Збигнев Чески
Сюжет фильма:
В небольшом надвисланском местечке ходят легенды о бесценных сокровищах прежнего наследника, которые пропали во время последней войны. Для выяснения этого, туда отправляется молодой работник музея Томаш, поставленный в известность о таинственных событиях профессором Опалко, который проводит в окрестностях местечка археологические и антропологические раскопки. Поскольку милиция относится к легендам о сокровищах с юмором, Томаш решает действовать самостоятельно.

  • Мировая премьера: 5 апреля 1965


Качество видео: DVDRip

Продолжительность: 01:25:09
Формат: AVI
Видео: XviD, 720x544 (4:3), 25.000 fps, 1545 kbps
Аудио #1: русский, любительский двухголосый закадровый (Levelin), AC3 5.1, 48 kHz, 448 kbps
Аудио #2: польский, оригинал, AC3 5.1, 48 kHz, 448 kbps
Субтитры: русские внешние, SRT

Код:

Format : AVI
Format/Info : Audio Video Interleave
File size : 1.46 GiB
Duration : 1h 25mn
Overall bit rate : 2 449 Kbps
Writing application : VirtualDubMod 1.5.4.1 (build 2178/release)
Writing library : VirtualDubMod build 2178/release

Video
ID : 0
Format : MPEG-4 Visual
Format profile : Advanced Simple@L5
Format settings, BVOP : 1
Format settings, QPel : No
Format settings, GMC : No warppoints
Format settings, Matrix : Custom
Codec ID : XVID
Codec ID/Hint : XviD
Duration : 1h 25mn
Bit rate : 1 545 Kbps
Width : 720 pixels
Height : 544 pixels
Display aspect ratio : 4:3
Frame rate : 25.000 fps
Color space : YUV
Chroma subsampling : 4:2:0
Bit depth : 8 bits
Scan type : Progressive
Compression mode : Lossy
Bits/(Pixel*Frame) : 0.158
Stream size : 941 MiB (63%)
Writing library : XviD 1.2.1 (UTC 2008-12-04)

Audio #1
ID : 1
Format : AC-3
Format/Info : Audio Coding 3
Mode extension : CM (complete main)
Format settings, Endianness : Big
Codec ID : 2000
Duration : 1h 25mn
Bit rate mode : Constant
Bit rate : 448 Kbps
Channel(s) : 6 channels
Channel positions : Front: L C R, Side: L R, LFE
Sampling rate : 48.0 KHz
Bit depth : 16 bits
Compression mode : Lossy
Stream size : 273 MiB (18%)
Alignment : Split accross interleaves
Interleave, duration : 96 ms (2.40 video frames)
Interleave, preload duration : 96 ms
Language : Russian

Audio #2
ID : 2
Format : AC-3
Format/Info : Audio Coding 3
Mode extension : CM (complete main)
Format settings, Endianness : Big
Codec ID : 2000
Duration : 1h 25mn
Bit rate mode : Constant
Bit rate : 448 Kbps
Channel(s) : 6 channels
Channel positions : Front: L C R, Side: L R, LFE
Sampling rate : 48.0 KHz
Bit depth : 16 bits
Compression mode : Lossy
Stream size : 273 MiB (18%)
Alignment : Split accross interleaves
Interleave, duration : 96 ms (2.40 video frames)
Interleave, preload duration : 96 ms
Language : Polish
Перевод: Professor
Озвучивание: Ариса Лебедева, Семен Ващенко
Работа со звуком: Diablo
picpicpicpicpic
Для увеличения картинки щелкните мышкой по превью

Этот торрент недоступен для скачивания без регистрации, однако доступен по публичной magnet-ссылке (источники с публичных трекеров). Перед использованием ссылки прочтите, пожалуйста Пользовательское соглашение, а также как можно дольше оставайтесь на раздаче! Для того, чтобы скачать сам торрент-файл (который видит больше источников), а также для того, чтобы поблагодарить релизера, вам необходимо зарегистрироваться. Если регистрироваться лень - вы можете также попробовать скачать релиз по нашим партнерским ссылкам ниже.

[underverse.me].t85842.torrent
Трекер: Зарегистрирован   [ 09.07.2017 09:57 ]  

Статус: проверено (by makkol at 09.07.2017 09:58)
Поблагодарили: пока никто не поблагодарил...
Тип торрента: публичный - доступные источники с открытых трекеров: 
Размер: 1,46 GB (занимает 1/3 DVDR, для записи нужно 1 болванка DVDR/RW)
 
 

Яндекс.Метрика powered by Sphinx


В Н И М А Н И Е
Сайт не распространяет и не хранит электронные версии произведений, а лишь бесплатно и без коммерческой выгоды (не требуя взамен платы,
SMS и т.д.) предоставляет доступ к создаваемому пользователями каталогу ссылок на торрент-файлы, которые содержат только списки хеш-сумм.
Убедительная просьба с жалобами обращаться напрямую к пользователю, разместившему торрент файл.

Вверх