Loading...
Error

(OST) VA - Четыре свадьбы и похороны / Four Weddings and a Funeral (1994) [FLAC (Tracks+.CUE), lossless]

Статистика раздачи
Размер:  339 MB   |    Зарегистрирован:  7 месяцев   |    Скачан:  2 раза

Полного источника не было: 6 месяцев

Сидов:  0  |  0 KB/s  ]   Личеров:  0  |  0 KB/s  ]

* - сиды/пиры с внешних источников

   
 
Автор Сообщение

Senseisan Пол:Муж

04-Июл-2017 07:27

VA - Четыре свадьбы и похороны / Four Weddings and a Funeral

Жанр: OST
Год выпуска: 1994
Источник: CD
Производитель: London Records
Аудиокодек: FLAC
Тип рипа: Tracks+.CUE
Битрейт: lossless
Продолжительность: 00:59:37

Треклист:

01. Wet Wet Wet - Love Is All Around [04:00]
02. Elton John - But Not For Me [03:00]
03. Barry White - You're The First My Last, My Everything[03:36]
04. Nu Colours - Smoke Gets In Your Eyes [04:26]
05. Gloria Gaynor - I Will Survive [03:48]
06. Swing Out Sister - La La La (Means I Love You) [04:45]
07. Elton John - Crocodile Rock [03:54]
08. I To I - The Right Time [03:30]
09. Gladys Knight And The Pips - It Should Have Been Me [03:03]
10. Squeeze - Loving You Tonight [04:49]
11. Lena Fiagbe - Can't Smile Without You [04:19]
12. John Hannah - Four Weddings And A Funeral (Funeral Blues)[10:35]
13. Sting - The Secret Marriage [02:01]
14. Elton John - Chapel Of Love [03:45]
Exact Audio Copy V1.0 beta 3 from 29. August 2011

EAC extraction logfile from 30. March 2012, 13:57

Various / Four weddings and a funeral

Used drive : Optiarc BD ROM BC-5500S4 Adapter: 0 ID: 1

Read mode : Secure
Utilize accurate stream : Yes
Defeat audio cache : Yes
Make use of C2 pointers : No

Read offset correction : 48
Overread into Lead-In and Lead-Out : No
Fill up missing offset samples with silence : Yes
Delete leading and trailing silent blocks : No
Null samples used in CRC calculations : Yes
Used interface : Native Win32 interface for Win NT & 2000
Gap handling : Appended to previous track

Used output format : User Defined Encoder
Selected bitrate : 1024 kBit/s
Quality : High
Add ID3 tag : No
Command line compressor : C:\Exact Audio Copy\Flac\flac.exe
Additional command line options : -8 -V -T "ARTIST=%artist%" -T "TITLE=%title%" -T "ALBUM=%albumtitle%" -T "DATE=%year%" -T "TRACKNUMBER=%tracknr%" -T "GENRE=%genre%" -T "PERFORMER=%albuminterpret%" -T "COMPOSER=%composer%" %haslyrics%--tag-from-file=LYRICS="%lyricsfile%"%haslyrics% -T "ALBUMARTIST=%albumartist%" -T "DISCNUMBER=%cdnumber%" -T "TOTALDISCS=%totalcds%" -T "TOTALTRACKS=%numtracks%" -T "COMMENT=%comment%" %source% -o %dest%

TOC of the extracted CD

Track | Start | Length | Start sector | End sector
---------------------------------------------------------
1 | 0:00.00 | 4:00.50 | 0 | 18049
2 | 4:00.50 | 3:00.25 | 18050 | 31574
3 | 7:01.00 | 3:36.00 | 31575 | 47774
4 | 10:37.00 | 4:26.00 | 47775 | 67724
5 | 15:03.00 | 3:48.50 | 67725 | 84874
6 | 18:51.50 | 4:45.00 | 84875 | 106249
7 | 23:36.50 | 3:54.50 | 106250 | 123849
8 | 27:31.25 | 3:30.12 | 123850 | 139611
9 | 31:01.37 | 3:03.63 | 139612 | 153399
10 | 34:05.25 | 4:49.12 | 153400 | 175086
11 | 38:54.37 | 4:19.63 | 175087 | 194574
12 | 43:14.25 | 10:35.70 | 194575 | 242269
13 | 53:50.20 | 2:01.55 | 242270 | 251399
14 | 55:52.00 | 3:45.00 | 251400 | 268274

Track 1

Filename C:\Musica - FLAC\Four Weddings and a Funeral - OST\01 - Wet Wet Wet - Love is all around.wav

Pre-gap length 0:00:02.00

Peak level 83.0 %
Extraction speed 1.8 X
Track quality 99.9 %
Test CRC 3C4344F8
Copy CRC 3C4344F8
Cannot be verified as accurate (confidence 2) [D903D72F], AccurateRip returned [1B68FF00] (AR v2)
Copy OK

Track 2

Filename C:\Musica - FLAC\Four Weddings and a Funeral - OST\02 - Elton John - But not for me.wav

Peak level 95.6 %
Extraction speed 2.3 X
Track quality 100.0 %
Test CRC 65E141DA
Copy CRC 65E141DA
Cannot be verified as accurate (confidence 2) [0F1B8C1B], AccurateRip returned [474E4997] (AR v2)
Copy OK

Track 3

Filename C:\Musica - FLAC\Four Weddings and a Funeral - OST\03 - Barry White - You're the first, my last, my everything.wav

Peak level 82.6 %
Extraction speed 2.6 X
Track quality 100.0 %
Test CRC FD438DD3
Copy CRC FD438DD3
Cannot be verified as accurate (confidence 2) [B4A96A57], AccurateRip returned [AF158414] (AR v2)
Copy OK

Track 4

Filename C:\Musica - FLAC\Four Weddings and a Funeral - OST\04 - Nu Colours - Smoke gets in your eyes.wav

Peak level 85.1 %
Extraction speed 2.9 X
Track quality 100.0 %
Test CRC 1EBA17BB
Copy CRC 1EBA17BB
Cannot be verified as accurate (confidence 2) [73056885], AccurateRip returned [B9B6E919] (AR v2)
Copy OK

Track 5

Filename C:\Musica - FLAC\Four Weddings and a Funeral - OST\05 - Gloria Gaynor - I will survive.wav

Peak level 86.5 %
Extraction speed 3.0 X
Track quality 100.0 %
Test CRC BFCB15A9
Copy CRC BFCB15A9
Cannot be verified as accurate (confidence 2) [7904DE66], AccurateRip returned [8ABAE26A] (AR v2)
Copy OK

Track 6

Filename C:\Musica - FLAC\Four Weddings and a Funeral - OST\06 - Swing Out Sisters - La la la (means I love you).wav

Peak level 91.3 %
Extraction speed 3.3 X
Track quality 100.0 %
Test CRC 2D0ED7C4
Copy CRC 2D0ED7C4
Cannot be verified as accurate (confidence 2) [C1DA7B28], AccurateRip returned [E65DDAE2] (AR v2)
Copy OK

Track 7

Filename C:\Musica - FLAC\Four Weddings and a Funeral - OST\07 - Elton John - Crocodile Rock.wav

Peak level 85.7 %
Extraction speed 3.4 X
Track quality 100.0 %
Test CRC 4B3E3E5A
Copy CRC 4B3E3E5A
Cannot be verified as accurate (confidence 2) [697F11E7], AccurateRip returned [D103A874] (AR v2)
Copy OK

Track 8

Filename C:\Musica - FLAC\Four Weddings and a Funeral - OST\08 - I to I - The right time.wav

Peak level 85.4 %
Extraction speed 2.8 X
Track quality 99.9 %
Test CRC D7EF1315
Copy CRC D7EF1315
Cannot be verified as accurate (confidence 2) [CD9BE974], AccurateRip returned [A3566D7C] (AR v2)
Copy OK

Track 9

Filename C:\Musica - FLAC\Four Weddings and a Funeral - OST\09 - Gladys Night & the Pips - It should have been me.wav

Peak level 84.3 %
Extraction speed 3.5 X
Track quality 100.0 %
Test CRC 318D8AE9
Copy CRC 318D8AE9
Cannot be verified as accurate (confidence 2) [718DB283], AccurateRip returned [AB484EF9] (AR v2)
Copy OK

Track 10

Filename C:\Musica - FLAC\Four Weddings and a Funeral - OST\10 - Squeeze - Loving you tonight.wav

Peak level 72.2 %
Extraction speed 3.3 X
Track quality 99.9 %
Test CRC CCBAB3C0
Copy CRC CCBAB3C0
Cannot be verified as accurate (confidence 2) [B2EF2763], AccurateRip returned [21021462] (AR v2)
Copy OK

Track 11

Filename C:\Musica - FLAC\Four Weddings and a Funeral - OST\11 - Lena Fiagbe - Can't smile without you.wav

Peak level 56.3 %
Extraction speed 4.0 X
Track quality 100.0 %
Test CRC 94A3E204
Copy CRC 94A3E204
Cannot be verified as accurate (confidence 2) [6D96D709], AccurateRip returned [BAD33CC9] (AR v2)
Copy OK

Track 12

Filename C:\Musica - FLAC\Four Weddings and a Funeral - OST\12 - John Hannah - Four weddings and a funeral - Funeral Blues.wav

Peak level 89.7 %
Extraction speed 4.6 X
Track quality 100.0 %
Test CRC E09687FF
Copy CRC E09687FF
Cannot be verified as accurate (confidence 2) [F9FCB93B], AccurateRip returned [83EDA88E] (AR v2)
Copy OK

Track 13

Filename C:\Musica - FLAC\Four Weddings and a Funeral - OST\13 - Sting - The secret marriage.wav

Peak level 42.5 %
Extraction speed 3.8 X
Track quality 100.0 %
Test CRC E74176C8
Copy CRC E74176C8
Cannot be verified as accurate (confidence 2) [1C1E5A1A], AccurateRip returned [DCD3C9CD] (AR v2)
Copy OK

Track 14

Filename C:\Musica - FLAC\Four Weddings and a Funeral - OST\14 - Elton John - Chapel of love.wav

Peak level 80.5 %
Extraction speed 4.5 X
Track quality 100.0 %
Test CRC 7BB85975
Copy CRC 7BB85975
Cannot be verified as accurate (confidence 2) [FA8925B5], AccurateRip returned [72D4C913] (AR v2)
Copy OK

No tracks could be verified as accurate
You may have a different pressing from the one(s) in the database

No errors occurred

End of status report

---- CUETools DB Plugin V2.1.3

[CTDB TOCID: JDqNSQmBdvZO9LOKnQGPKNK4JJY-] disk not present in database, Submit result: JDqNSQmBdvZO9LOKnQGPKNK4JJY- has been uploaded

==== Log checksum 5FE3FB7866FB651B9C8D2EDC088DB902CF555AD31C3291DF316FD1D4DF1C8574 ====
REM GENRE Soundtrack
REM DATE 1994
REM DISCID B40DF90E
REM COMMENT "ExactAudioCopy v1.0b3"
PERFORMER "Various"
TITLE "Four weddings and a funeral"
FILE "01 - Wet Wet Wet - Love is all around.wav" WAVE
TRACK 01 AUDIO
TITLE "Love is all around"
PERFORMER "Wet Wet Wet"
ISRC 000000000000
INDEX 01 00:00:00
FILE "02 - Elton John - But not for me.wav" WAVE
TRACK 02 AUDIO
TITLE "But not for me"
PERFORMER "Elton John"
ISRC 000000000000
INDEX 01 00:00:00
FILE "03 - Barry White - You're the first, my last, my everything.wav" WAVE
TRACK 03 AUDIO
TITLE "You're the first, my last, my everything"
PERFORMER "Barry White"
ISRC 000000000000
INDEX 01 00:00:00
FILE "04 - Nu Colours - Smoke gets in your eyes.wav" WAVE
TRACK 04 AUDIO
TITLE "Smoke gets in your eyes"
PERFORMER "Nu Colours"
ISRC 000000000000
INDEX 01 00:00:00
FILE "05 - Gloria Gaynor - I will survive.wav" WAVE
TRACK 05 AUDIO
TITLE "I will survive"
PERFORMER "Gloria Gaynor"
ISRC 000000000000
INDEX 01 00:00:00
FILE "06 - Swing Out Sisters - La la la (means I love you).wav" WAVE
TRACK 06 AUDIO
TITLE "La la la (means I love you)"
PERFORMER "Swing Out Sisters"
ISRC 000000000000
INDEX 01 00:00:00
FILE "07 - Elton John - Crocodile Rock.wav" WAVE
TRACK 07 AUDIO
TITLE "Crocodile Rock"
PERFORMER "Elton John"
ISRC 000000000000
INDEX 01 00:00:00
FILE "08 - I to I - The right time.wav" WAVE
TRACK 08 AUDIO
TITLE "The right time"
PERFORMER "I to I"
ISRC 000000000000
INDEX 01 00:00:00
FILE "09 - Gladys Night & the Pips - It should have been me.wav" WAVE
TRACK 09 AUDIO
TITLE "It should have been me"
PERFORMER "Gladys Night & the Pips"
ISRC 000000000000
INDEX 01 00:00:00
FILE "10 - Squeeze - Loving you tonight.wav" WAVE
TRACK 10 AUDIO
TITLE "Loving you tonight"
PERFORMER "Squeeze"
ISRC 000000000000
INDEX 01 00:00:00
FILE "11 - Lena Fiagbe - Can't smile without you.wav" WAVE
TRACK 11 AUDIO
TITLE "Can't smile without you"
PERFORMER "Lena Fiagbe"
ISRC 000000000000
INDEX 01 00:00:00
FILE "12 - John Hannah - Four weddings and a funeral - Funeral Blues.wav" WAVE
TRACK 12 AUDIO
TITLE "Four weddings and a funeral - Funeral Blues"
PERFORMER "John Hannah"
ISRC 000000000000
INDEX 01 00:00:00
FILE "13 - Sting - The secret marriage.wav" WAVE
TRACK 13 AUDIO
TITLE "The secret marriage"
PERFORMER "Sting"
ISRC 000000000000
INDEX 01 00:00:00
FILE "14 - Elton John - Chapel of love.wav" WAVE
TRACK 14 AUDIO
TITLE "Chapel of love"
PERFORMER "Elton John"
ISRC 000000000000
INDEX 01 00:00:00

Этот торрент недоступен для скачивания без регистрации, однако доступен по публичной magnet-ссылке (источники с публичных трекеров). Перед использованием ссылки прочтите, пожалуйста Пользовательское соглашение, а также как можно дольше оставайтесь на раздаче! Для того, чтобы скачать сам торрент-файл (который видит больше источников), а также для того, чтобы поблагодарить релизера, вам необходимо зарегистрироваться. Если регистрироваться лень - вы можете также попробовать скачать релиз по нашим партнерским ссылкам ниже. Кроме того, зарегистрированным пользователям не показывается всплывающая реклама при скачивании.

[underverse.me].t85515.torrent
Трекер: Зарегистрирован   [ 05.07.2017 12:28 ]  

Статус: проверено (by garry at 05.07.2017 14:42)
Поблагодарили: пока никто не поблагодарил...
Тип торрента: публичный - доступные источники с открытых трекеров: 
Размер: 339 MB (занимает 0,08 DVDR, для записи нужно 1 болванка DVDR/RW)
 
 
Похожие темы
Форум Тема Автор Торрент Отв. Посл. сооб.
OST & Score - Movie (OST) VA - Достучаться до небес / Knockin' On Heaven's Door (1997) [MP3, 320 kbps] garry
5 | 0

0 | 3151

15

31.07.2009 15:19

OST & Score - Movie (OST) VA - Страх и ненависть в Лас-Вегасе / Fear And Loathing in Las Vegas (1998) [MP3, 320 kbps] M-i-i-i-ke
10 | 0

2 | 3265

4

27.06.2014 20:42

OST & Score - Movie (OST) VA - Best of Bond... James Bond (50 Years - 50 Tracks) (2012) [iTunes AAC M4A, 256 kbps VBR] Web garry
9 | 0

0 | 2892

2

08.03.2010 20:08

OST & Score - Movie (OST) VA - Всегда говори ДА / Yes Man (2008) [MP3, 320 kbps] БогDan
3 | 0

3 | 2102

0

28.06.2014 15:58

# OST & Score - Movie (OST) VA - Школа рока / School of Rock (2003) [iTunes AAC M4A, 256 kbps VBR] Web garry
1 | 5

0 | 3066

2

03.06.2009 18:03

OST & Score - Movie (OST) VA - Большой Куш / Snatch (2000) [MP3, 320 kbps] M-i-i-i-ke
30 | 0

2 | 2527

7

03.12.2013 10:54

OST & Score - Movie (OST) VA - Загадочная история Бенджамина Баттона / Curious Case of Benjamin Button (2008) [MP3, 320 kbps] M-i-i-i-ke
2 | 2

2 | 1889

2

28.06.2014 00:23

OST & Score - Movie (OST) VA - Карты, деньги, два ствола / Lock, Stock and Two Smoking Barrels (1998) [MP3, 320 kbps] M-i-i-i-ke
21 | 0

3 | 2103

9

28.06.2014 00:17

OST & Score - Movie (OST) VA - Рок-волна / Boat That Rocked (2009) [MP3, 320 kbps] garry
23 | 0

0 | 2283

10

20.06.2009 18:05

OST & Score - Movie (OST) VA - Каратель | Территория войны / Punisher | War Zone (2004, 2008) [iTunes AAC M4A, 256 kbps VBR] Web garry
1 | 1

0 | 2942

0

21.06.2009 22:07



Последний раз редактировалось: Senseisan (05.07.2017 12:28), всего редактировалось 3 раз(а)

garry Пол:Муж

04-Июл-2017 11:36

Цитата:

(OST) Four Weddings And A Funeral (1994) [FLAC (Tracks+.CUE), lossless]
 !  garry:
добавьте, пожалуйста, русское название фильма
пример "(Score) Бэтмен: Убийственная шутка / Batman: The Killing Joke"

Цитата:

Треклист:

Tracklisting:
 !  garry:
уберите, пожалуйста, лишнее слово "Tracklisting"

Цитата:

приватный - доступны источники только с нашего трекера
 !  garry:
пожалуйста, пересоздайте на "публичный" (нужно снять галочку "частный торрент" при создании)

пишите, если нужна помощь

31-Янв-2018 21:21

Топик был перенесен из форума OST & Score Movie, TV Show & Series, Game (Lossless) в форум Архив (HQ саундтреки)


[cron robot]
 

Яндекс.Метрика powered by Sphinx


В Н И М А Н И Е
Сайт не распространяет и не хранит электронные версии произведений, а лишь бесплатно и без коммерческой выгоды (не требуя взамен платы,
SMS и т.д.) предоставляет доступ к создаваемому пользователями каталогу ссылок на торрент-файлы, которые содержат только списки хеш-сумм.
Убедительная просьба с жалобами обращаться напрямую к пользователю, разместившему торрент файл.

Вверх