Loading...
Error

Нарушители спокойствия / Die Storenfriede (Вольфганг Шляйф) [1953 г., семейный, DVDRip] VO (Муравский) + Original

Статистика раздачи
Размер:  1,46 GB   |    Зарегистрирован:  5 месяцев 18 дней   |    Скачан:  0 раз

Полного источника не было: Никогда

Сидов:  0  |  0 KB/s  ]   Личеров:  0  |  0 KB/s  ]

* - сиды/пиры с внешних источников

   
 
Автор Сообщение

makkol Пол:Муж

23-Июн-2017 14:00

Нарушители спокойствия / Die Störenfriede


Год выпуска: 1953
Жанр: семейный
Производство: ГДР [Deutsche Film (DEFA)]
Режиссер: Вольфганг Шляйф
В ролях: Эдгар Беннерт, Соня Хаакер, Шарлотте Кютер, Эрих Мирек, Мария Рувель, Ариберт Гриммер, Манфред Боргес, Элизабет Альбрехт, Мария Безендаль
Сюжет фильма:
От Франца и Шорша плачет вся школа. Всегда готовые к разным проделкам, они постоянно мешают на уроках. Добродушный учитель Боле давно прекратил бороться с ними, бездействуют и другие ученики класса. Но новая ученица Вера активно вмешивается. Она пытается пристыдить мальчиков, впрочем, безуспешно. Впоследствии она узнаёт, что Франц и Шорш очень интересуются железной дорогой и паровозами. Она использует этот интерес, чтобы направить их жажду деятельности в новое русло. Вместе со своим отцом Вера организует для класса экскурсию на паровозный завод. Так ей удаётся убедить обоих ребят перестать быть "нарушителями спокойствия".

  • Мировая премьера: 26 июня 1953


Качество видео: DVDRip

Продолжительность: 01:28:37
Формат: AVI
Видео: XviD, 720x544 (4:3), 25.000 fps, 1962 kbps
Аудио #1: русский, любительский одноголосый закадровый (Юрий Муравский), AC3 2.0, 48 kHz, 192 kbps
Аудио #2: немецкий, оригинал, AC3 2.0, 48 kHz, 192 kbps

Код:

Format : AVI
Format/Info : Audio Video Interleave
File size : 1.46 GiB
Duration : 1h 28mn
Overall bit rate : 2 355 Kbps
Writing application : VirtualDubMod 1.5.4.1 (build 2178/release)
Writing library : VirtualDubMod build 2178/release

Video
ID : 0
Format : MPEG-4 Visual
Format profile : Advanced Simple@L5
Format settings, BVOP : 1
Format settings, QPel : No
Format settings, GMC : No warppoints
Format settings, Matrix : Custom
Codec ID : XVID
Codec ID/Hint : XviD
Duration : 1h 28mn
Bit rate : 1 962 Kbps
Width : 720 pixels
Height : 544 pixels
Display aspect ratio : 4:3
Frame rate : 25.000 fps
Color space : YUV
Chroma subsampling : 4:2:0
Bit depth : 8 bits
Scan type : Progressive
Compression mode : Lossy
Bits/(Pixel*Frame) : 0.200
Stream size : 1.21 GiB (83%)
Writing library : XviD 1.2.1 (UTC 2008-12-04)

Audio #1
ID : 1
Format : AC-3
Format/Info : Audio Coding 3
Mode extension : CM (complete main)
Format settings, Endianness : Big
Codec ID : 2000
Duration : 1h 28mn
Bit rate mode : Constant
Bit rate : 192 Kbps
Channel(s) : 2 channels
Channel positions : Front: L R
Sampling rate : 48.0 KHz
Bit depth : 16 bits
Compression mode : Lossy
Stream size : 122 MiB (8%)
Alignment : Split accross interleaves
Interleave, duration : 96 ms (2.40 video frames)
Interleave, preload duration : 96 ms
Language : Russian

Audio #2
ID : 2
Format : AC-3
Format/Info : Audio Coding 3
Mode extension : CM (complete main)
Format settings, Endianness : Big
Codec ID : 2000
Duration : 1h 28mn
Bit rate mode : Constant
Bit rate : 192 Kbps
Channel(s) : 2 channels
Channel positions : Front: L R
Sampling rate : 48.0 KHz
Bit depth : 16 bits
Compression mode : Lossy
Stream size : 122 MiB (8%)
Alignment : Split accross interleaves
Interleave, duration : 96 ms (2.40 video frames)
Interleave, preload duration : 96 ms
Language : Deutsch
picpicpicpicpic
Для увеличения картинки щелкните мышкой по превью

Этот торрент недоступен для скачивания без регистрации, однако доступен по публичной magnet-ссылке (источники с публичных трекеров). Перед использованием ссылки прочтите, пожалуйста Пользовательское соглашение, а также как можно дольше оставайтесь на раздаче! Для того, чтобы скачать сам торрент-файл (который видит больше источников), а также для того, чтобы поблагодарить релизера, вам необходимо зарегистрироваться. Если регистрироваться лень - вы можете также попробовать скачать релиз по нашим партнерским ссылкам ниже.

[underverse.me].t84868.torrent
Трекер: Зарегистрирован   [ 23.06.2017 14:00 ]  

Статус: проверено (by makkol at 23.06.2017 14:00)
Поблагодарили: пока никто не поблагодарил...
Тип торрента: публичный - доступные источники с открытых трекеров: 
Размер: 1,46 GB (занимает 1/3 DVDR, для записи нужно 1 болванка DVDR/RW)
 
 

Яндекс.Метрика powered by Sphinx


В Н И М А Н И Е
Сайт не распространяет и не хранит электронные версии произведений, а лишь бесплатно и без коммерческой выгоды (не требуя взамен платы,
SMS и т.д.) предоставляет доступ к создаваемому пользователями каталогу ссылок на торрент-файлы, которые содержат только списки хеш-сумм.
Убедительная просьба с жалобами обращаться напрямую к пользователю, разместившему торрент файл.

Вверх