Loading...
Error

(Synthpop) Distain! - Cement Garden (1995) [FLAC (Tracks+.CUE), lossless]

Статистика раздачи
Размер:  388 MB   |    Зарегистрирован:  11 месяцев   |    Скачан:  1 раз

Полного источника не было: 7 месяцев

Сидов:  0  |  0 KB/s  ]   Личеров:  0  |  0 KB/s  ]

* - сиды/пиры с внешних источников

   
 
Автор Сообщение

Darkferse Пол:Жен

07-Июн-2017 16:03

Distain! - Cement Garden

Жанр: Synthpop
Страна: Germany
Год выпуска: 1995
Источник: CD
Производитель: Daydream Records - GYM 5822
Аудиокодек: FLAC
Тип рипа: Tracks+.CUE
Битрейт: lossless
Продолжительность: 00:53:57

Треклист:

01. World Of Stone - 4:02
02. Strange Affection - 4:19
03. Better Life - 5:43
04. Dance In Heaven - 5:14
05. Confession - 4:21
06. It's Over - 6:10
07. Slave - 4:19
08. Soldiers - 4:34
09. Piano Song (Unplugged) - 3:50
10. Shadows Of The Past - 4:07
11. Science Can't Be Crime - 7:29

Код:

Exact Audio Copy V1.0 beta 1 from 15. November 2010

EAC extraction logfile from 16. June 2011, 21:43

Distain! / Cement Garden

Used drive  : ASUS    DRW-24B3LT   Adapter: 2  ID: 0

Read mode               : Secure
Utilize accurate stream : Yes
Defeat audio cache      : Yes
Make use of C2 pointers : No

Read offset correction                      : 6
Overread into Lead-In and Lead-Out          : No
Fill up missing offset samples with silence : Yes
Delete leading and trailing silent blocks   : No
Null samples used in CRC calculations       : Yes
Used interface                              : Native Win32 interface for Win NT & 2000
Gap handling                                : Appended to previous track

Used output format              : User Defined Encoder
Selected bitrate                : 1024 kBit/s
Quality                         : High
Add ID3 tag                     : No
Command line compressor         : C:\Program Files\Exact Audio Copy\Flac\flac.exe
Additional command line options : -8 -V -T "ARTIST=%a" -T "TITLE=%t" -T "ALBUM=%g" -T "DATE=%y" -T "TRACKNUMBER=%n" -T "GENRE=%m" -T "COMMENT=EAC FLAC -8" %s

TOC of the extracted CD

     Track |   Start  |  Length  | Start sector | End sector
    ---------------------------------------------------------
        1  |  0:00.00 |  4:05.00 |         0    |    18374
        2  |  4:05.00 |  4:20.65 |     18375    |    37939
        3  |  8:25.65 |  5:43.05 |     37940    |    63669
        4  | 14:08.70 |  5:17.15 |     63670    |    87459
        5  | 19:26.10 |  3:49.55 |     87460    |   104689
        6  | 23:15.65 |  6:14.65 |    104690    |   132804
        7  | 29:30.55 |  4:42.52 |    132805    |   154006
        8  | 34:13.32 |  4:06.63 |    154007    |   172519
        9  | 38:20.20 |  4:09.72 |    172520    |   191266
       10  | 42:30.17 |  4:10.33 |    191267    |   210049
       11  | 46:40.50 |  7:40.45 |    210050    |   244594

Track  1

     Filename O:\LOSSLESS\Раздача\DISTAIN! (1995) Cement Garden\01. World Of Stone.wav

     Pre-gap length  0:00:02.00

     Peak level 98.0 %
     Extraction speed 3.4 X
     Track quality 100.0 %
     Test CRC 019F489E
     Copy CRC 019F489E
     Accurately ripped (confidence 5)  [98D6F6E2]
     Copy OK

Track  2

     Filename O:\LOSSLESS\Раздача\DISTAIN! (1995) Cement Garden\02. Strange Affection.wav

     Pre-gap length  0:00:01.43

     Peak level 98.0 %
     Extraction speed 3.9 X
     Track quality 100.0 %
     Test CRC 679C6460
     Copy CRC 679C6460
     Accurately ripped (confidence 5)  [BC2AE0C1]
     Copy OK

Track  3

     Filename O:\LOSSLESS\Раздача\DISTAIN! (1995) Cement Garden\03. Better Life.wav

     Pre-gap length  0:00:01.42

     Peak level 98.0 %
     Extraction speed 4.5 X
     Track quality 100.0 %
     Test CRC DF23CA4B
     Copy CRC DF23CA4B
     Accurately ripped (confidence 2)  [B13EE447]
     Copy OK

Track  4

     Filename O:\LOSSLESS\Раздача\DISTAIN! (1995) Cement Garden\04. Dance In Heaven.wav

     Pre-gap length  0:00:01.42

     Peak level 98.0 %
     Extraction speed 4.9 X
     Track quality 100.0 %
     Test CRC 551232C1
     Copy CRC 551232C1
     Accurately ripped (confidence 2)  [6AFF8C40]
     Copy OK

Track  5

     Filename O:\LOSSLESS\Раздача\DISTAIN! (1995) Cement Garden\05. Confession.wav

     Pre-gap length  0:00:02.45

     Peak level 98.0 %
     Extraction speed 5.0 X
     Track quality 100.0 %
     Test CRC 95FDF19B
     Copy CRC 95FDF19B
     Accurately ripped (confidence 5)  [073328AE]
     Copy OK

Track  6

     Filename O:\LOSSLESS\Раздача\DISTAIN! (1995) Cement Garden\06. It's Over.wav

     Pre-gap length  0:00:02.40

     Peak level 98.0 %
     Extraction speed 5.6 X
     Track quality 100.0 %
     Test CRC 98046AB3
     Copy CRC 98046AB3
     Accurately ripped (confidence 2)  [62956168]
     Copy OK

Track  7

     Filename O:\LOSSLESS\Раздача\DISTAIN! (1995) Cement Garden\07. Slave.wav

     Pre-gap length  0:00:03.44

     Peak level 98.0 %
     Extraction speed 5.8 X
     Track quality 100.0 %
     Test CRC 11E082AD
     Copy CRC 11E082AD
     Accurately ripped (confidence 2)  [B9A2D3CE]
     Copy OK

Track  8

     Filename O:\LOSSLESS\Раздача\DISTAIN! (1995) Cement Garden\08. Soldiers.wav

     Pre-gap length  0:00:01.27

     Peak level 98.0 %
     Extraction speed 5.9 X
     Track quality 100.0 %
     Test CRC 99D35127
     Copy CRC 99D35127
     Accurately ripped (confidence 2)  [01C1C2A0]
     Copy OK

Track  9

     Filename O:\LOSSLESS\Раздача\DISTAIN! (1995) Cement Garden\09. Piano Song (Unplugged).wav

     Pre-gap length  0:00:03.40

     Peak level 98.0 %
     Extraction speed 6.2 X
     Track quality 100.0 %
     Test CRC 6140705D
     Copy CRC 6140705D
     Accurately ripped (confidence 2)  [07BDBDC8]
     Copy OK

Track 10

     Filename O:\LOSSLESS\Раздача\DISTAIN! (1995) Cement Garden\10. Shadows Of The Past.wav

     Pre-gap length  0:00:03.35

     Peak level 98.0 %
     Extraction speed 6.4 X
     Track quality 100.0 %
     Test CRC A9C0CE29
     Copy CRC A9C0CE29
     Accurately ripped (confidence 2)  [6BFBD9FC]
     Copy OK

Track 11

     Filename O:\LOSSLESS\Раздача\DISTAIN! (1995) Cement Garden\11. Science Can't Be Crime.wav

     Pre-gap length  0:00:02.44

     Peak level 98.0 %
     Extraction speed 6.2 X
     Track quality 99.9 %
     Test CRC 5E9C22CF
     Copy CRC 5E9C22CF
     Accurately ripped (confidence 2)  [3AE3CE6D]
     Copy OK

All tracks accurately ripped

No errors occurred

End of status report

Код:

REM GENRE Synthpop
REM DATE 1995
REM DISCID 8A0CBD0B
REM COMMENT "ExactAudioCopy v1.0b1"
PERFORMER "Distain!"
TITLE "Cement Garden"
FILE "01. World Of Stone.wav" WAVE
  TRACK 01 AUDIO
    TITLE "World Of Stone"
    PERFORMER "Distain!"
    INDEX 01 00:00:00
  TRACK 02 AUDIO
    TITLE "Strange Affection"
    PERFORMER "Distain!"
    INDEX 00 04:03:32
FILE "02. Strange Affection.wav" WAVE
    INDEX 01 00:00:00
  TRACK 03 AUDIO
    TITLE "Better Life"
    PERFORMER "Distain!"
    INDEX 00 04:19:23
FILE "03. Better Life.wav" WAVE
    INDEX 01 00:00:00
  TRACK 04 AUDIO
    TITLE "Dance In Heaven"
    PERFORMER "Distain!"
    INDEX 00 05:41:38
FILE "04. Dance In Heaven.wav" WAVE
    INDEX 01 00:00:00
  TRACK 05 AUDIO
    TITLE "Confession"
    PERFORMER "Distain!"
    INDEX 00 05:14:45
FILE "05. Confession.wav" WAVE
    INDEX 01 00:00:00
  TRACK 06 AUDIO
    TITLE "It's Over"
    PERFORMER "Distain!"
    INDEX 00 03:47:15
FILE "06. It's Over.wav" WAVE
    INDEX 01 00:00:00
  TRACK 07 AUDIO
    TITLE "Slave"
    PERFORMER "Distain!"
    INDEX 00 06:11:21
FILE "07. Slave.wav" WAVE
    INDEX 01 00:00:00
  TRACK 08 AUDIO
    TITLE "Soldiers"
    PERFORMER "Distain!"
    INDEX 00 04:41:25
FILE "08. Soldiers.wav" WAVE
    INDEX 01 00:00:00
  TRACK 09 AUDIO
    TITLE "Piano Song (Unplugged)"
    PERFORMER "Distain!"
    INDEX 00 04:03:23
FILE "09. Piano Song (Unplugged).wav" WAVE
    INDEX 01 00:00:00
  TRACK 10 AUDIO
    TITLE "Shadows Of The Past"
    PERFORMER "Distain!"
    INDEX 00 04:06:37
FILE "10. Shadows Of The Past.wav" WAVE
    INDEX 01 00:00:00
  TRACK 11 AUDIO
    TITLE "Science Can't Be Crime"
    PERFORMER "Distain!"
    INDEX 00 04:07:64
FILE "11. Science Can't Be Crime.wav" WAVE
    INDEX 01 00:00:00

Этот торрент недоступен для скачивания без регистрации, однако доступен по публичной magnet-ссылке (источники с публичных трекеров). Перед использованием ссылки прочтите, пожалуйста Пользовательское соглашение, а также как можно дольше оставайтесь на раздаче! Для того, чтобы скачать сам торрент-файл (который видит больше источников), а также для того, чтобы поблагодарить релизера, вам необходимо зарегистрироваться. Если регистрироваться лень - вы можете также попробовать скачать релиз по нашим партнерским ссылкам ниже. Кроме того, зарегистрированным пользователям не показывается всплывающая реклама при скачивании.

[underverse.me].t83751.torrent
Трекер: Зарегистрирован   [ 07.06.2017 16:03 ]  

Статус: проверено (by Бишеп at 08.06.2017 22:32)
Поблагодарили: пока никто не поблагодарил...
Тип торрента: публичный - доступные источники с открытых трекеров: 
Размер: 388 MB (занимает 0,09 DVDR, для записи нужно 1 болванка DVDR/RW)
 
 
Похожие темы
Форум Тема Автор Торрент Отв. Посл. сооб.
Synthpop, Futurepop, Electropop, Spacesynth (Synthpop) New Order - Singularity (Remixes) (2016) [MP3, 320 kbps] ANDRAKO
1 | 0

0 | 711

5

27.12.2016 18:11

Synthpop, Futurepop, Electropop, Spacesynth (Synthpop) Liebe - Revolution Of Love (2016) [MP3, 320 kbps] ANDRAKO
1 | 0

0 | 628

5

27.12.2016 18:08

Synthpop, Futurepop, Electropop, Spacesynth (Synthpop) Information Society - Orders of Magnitude (2016) [MP3, 320 kbps] ANDRAKO
2 | 0

0 | 640

5

27.12.2016 18:01

Synthpop, Futurepop, Electropop, Spacesynth (Synthpop) Wolfsheim – Discography (1991-2004) [MP3, 128-320kbps VBR] ZondeR
0 | 0

0 | 4381

9

28.04.2009 00:15

Synthpop, Futurepop, Electropop, Spacesynth (Synthpop) Pet Shop Boys - The Pop Kids (EP) (2016) [MP3, 320 kbps] ANDRAKO
6 | 1

0 | 517

5

05.12.2016 18:57

Synthpop, Futurepop, Electropop, Spacesynth (Synthpop) Etage Neun - Weatherman (EP) (2015) [MP3, 320 kbps] ANDRAKO
1 | 0

0 | 526

3

05.12.2016 18:50

Synthpop, Futurepop, Electropop, Spacesynth (Synthpop) Calfskin - This Is Not Our Home (2017) [MP3, 320 kbps CBR] Darkferse
0 | 0

0 | 197

4

01.01.2018 10:02

Synthpop, Futurepop, Electropop, Spacesynth (Synthpop) WANT / ed - Fringe (2016) [MP3, 320 kbps] ANDRAKO
0 | 0

0 | 645

4

30.11.2016 18:00

Synthpop, Futurepop, Electropop, Spacesynth (Synthpop) Andy Bell - Torsten The Beautiful Libertine (2016) [MP3, 320 kbps] ANDRAKO
0 | 0

0 | 466

5

28.11.2016 19:13

Synthpop, Futurepop, Electropop, Spacesynth (Synthpop) Baasch - Grizzly Bear With A Million Eyes (2017) [MP3, 320 kbps CBR] Darkferse
3 | 0

0 | 444

5

28.05.2017 09:23

31-Янв-2018 21:16

Топик был перенесен из форума Synthpop, Futurepop, Electropop, Spacesynth (Lossless) в форум Архив (HQ электронная музыка)


[cron robot]
 

Яндекс.Метрика powered by Sphinx


В Н И М А Н И Е
Сайт не распространяет и не хранит электронные версии произведений, а лишь бесплатно и без коммерческой выгоды (не требуя взамен платы,
SMS и т.д.) предоставляет доступ к создаваемому пользователями каталогу ссылок на торрент-файлы, которые содержат только списки хеш-сумм.
Убедительная просьба с жалобами обращаться напрямую к пользователю, разместившему торрент файл.

Вверх