Loading...
Error

(Score) The Music of DC Comics: 75th Anniversary Collection (2010) [FLAC (Tracks+.CUE), lossless]

Статистика раздачи
Размер:  256 MB   |    Зарегистрирован:  11 месяцев   |    Скачан:  1 раз

Полного источника не было: 14 часов

Сидов:  0  |  0 KB/s  ]   Личеров:  0  |  0 KB/s  ]

* - сиды/пиры с внешних источников

   
 
Автор Сообщение

garry Пол:Муж

04-Июн-2017 09:35

The Music of DC Comics: 75th Anniversary Collection

Жанр: Score
Год выпуска: 2010
Источник: CD / What.CD
Производитель: WaterTower Music
Аудиокодек: FLAC
Тип рипа: Tracks+.CUE
Битрейт: lossless
Продолжительность: 00:42:06
01 - Sammy Timberg - Superman March
02 - John Williams - Theme from Superman (Album version)
03 - John Gart - The New Adventures of Superman
04 - Jay Gruska - Lois and Clark / The New Adventures of Superman
05 - John Gart - The Adventures of Superboy
06 - Kevin Kiner - Superboy
07 - Louis Febre - Smallville Season 8 (End Title)
08 - Lee Zahler - Batman: The Electrical Brain
09 - Danny Elfman - The Batman Theme (Album version)
10 - John Gart - The Adventures of Batman
11 - Neal Hefti - Batman TV Series Theme
12 - Andy Sturmer - Batman: The Brave and the Bold Theme
13 - Kristopher Carter - Batman Beyond (Main Title)
14 - Hans Zimmer & James Newton Howard - Molossus from Batman Begins
15 - John Gart - Justice League of America
16 - Hoyt Curtin - Super Friends
17 - Hoyt Curtin - The All New Super Friends Hour
18 - Michael McCuistion - Justice League Unlimited Theme
19 - Fred Werner - Legends of the Superheroes
20 - John Gart - The Teen Titans
21 - John Gart - Aquaman
22 - Christopher Stone - Swamp Thing
23 - Jeff Michael & Yvette H. Blais - Shazam
24 - John Gart - The Flash
25 - John Gart - Green Lantern
26 - Robert J. Kral - Green Lantern First Flight
27 - John Gart - The Atom
28 - John Gart - Hawkman
29 - Dean Elliott - Plastic Man Comedy Adventure Show
30 - Christopher Drake - Wonder Woman The Animated Movie End Title
31 - Charles Fox & Norman Gimbel - Wonder Woman
Exact Audio Copy V0.99 prebeta 5 from 4. May 2009

EAC extraction logfile from 29. September 2010, 16:55

Various / The Music Of DC Comics: 75th Anniversary Collection

Used drive : TSSTcorpDVD+-RW TS-H653F Adapter: 0 ID: 2

Read mode : Secure
Utilize accurate stream : Yes
Defeat audio cache : Yes
Make use of C2 pointers : No

Read offset correction : 6
Overread into Lead-In and Lead-Out : No
Fill up missing offset samples with silence : Yes
Delete leading and trailing silent blocks : No
Null samples used in CRC calculations : Yes
Used interface : Native Win32 interface for Win NT & 2000
Gap handling : Appended to previous track

Used output format : User Defined Encoder
Selected bitrate : 1024 kBit/s
Quality : High
Add ID3 tag : No
Command line compressor : C:\Program Files (x86)\Exact Audio Copy99pb5\Flac\flac.exe
Additional command line options : -V -8 -T "artist=%a" -T "title=%t" -T "album=%g" -T "date=%y" -T "tracknumber=%n" -T "genre=%m" %s

TOC of the extracted CD

Track | Start | Length | Start sector | End sector
---------------------------------------------------------
1 | 0:00.00 | 1:28.12 | 0 | 6611
2 | 1:28.12 | 4:23.72 | 6612 | 26408
3 | 5:52.09 | 0:55.46 | 26409 | 30579
4 | 6:47.55 | 1:01.37 | 30580 | 35191
5 | 7:49.17 | 0:30.27 | 35192 | 37468
6 | 8:19.44 | 0:47.54 | 37469 | 41047
7 | 9:07.23 | 0:24.34 | 41048 | 42881
8 | 9:31.57 | 2:10.03 | 42882 | 52634
9 | 11:41.60 | 2:38.25 | 52635 | 64509
10 | 14:20.10 | 1:00.28 | 64510 | 69037
11 | 15:20.38 | 2:19.43 | 69038 | 79505
12 | 17:40.06 | 0:31.74 | 79506 | 81904
13 | 18:12.05 | 1:00.22 | 81905 | 86426
14 | 19:12.27 | 4:50.67 | 86427 | 108243
15 | 24:03.19 | 0:31.55 | 108244 | 110623
16 | 24:34.74 | 1:02.29 | 110624 | 115302
17 | 25:37.28 | 1:00.47 | 115303 | 119849
18 | 26:38.00 | 1:02.15 | 119850 | 124514
19 | 27:40.15 | 1:35.28 | 124515 | 131667
20 | 29:15.43 | 0:30.21 | 131668 | 133938
21 | 29:45.64 | 0:23.27 | 133939 | 135690
22 | 30:09.16 | 1:02.23 | 135691 | 140363
23 | 31:11.39 | 1:00.26 | 140364 | 144889
24 | 32:11.65 | 0:30.39 | 144890 | 147178
25 | 32:42.29 | 0:32.04 | 147179 | 149582
26 | 33:14.33 | 2:04.34 | 149583 | 158916
27 | 35:18.67 | 0:32.16 | 158917 | 161332
28 | 35:51.08 | 0:31.32 | 161333 | 163689
29 | 36:22.40 | 0:59.02 | 163690 | 168116
30 | 37:21.42 | 3:04.16 | 168117 | 181932
31 | 40:25.58 | 1:41.00 | 181933 | 189507

Track 1

Filename C:\EAC Rips\01 - Sammy Timberg - Superman March.wav

Pre-gap length 0:00:02.00

Peak level 97.7 %
Track quality 100.0 %
Test CRC DD5916FA
Copy CRC DD5916FA
Track not present in AccurateRip database
Copy OK

Track 2

Filename C:\EAC Rips\02 - John Williams - Theme From Superman (Album Version).wav

Peak level 97.7 %
Track quality 100.0 %
Test CRC E28CE6B7
Copy CRC E28CE6B7
Track not present in AccurateRip database
Copy OK

Track 3

Filename C:\EAC Rips\03 - John Gart - The New Adventures Of Superman.wav

Peak level 100.0 %
Track quality 100.0 %
Test CRC 9018BE47
Copy CRC 9018BE47
Track not present in AccurateRip database
Copy OK

Track 4

Filename C:\EAC Rips\04 - Jay Gruska,Lois And Clark - The New Adventures Of Superman.wav

Peak level 100.0 %
Track quality 100.0 %
Test CRC 804E6F3E
Copy CRC 804E6F3E
Track not present in AccurateRip database
Copy OK

Track 5

Filename C:\EAC Rips\05 - John Gart - The Adventures Of Superboy.wav

Peak level 97.7 %
Track quality 100.0 %
Test CRC 1572E43B
Copy CRC 1572E43B
Track not present in AccurateRip database
Copy OK

Track 6

Filename C:\EAC Rips\06 - Kevin Kiner - Superboy.wav

Peak level 100.0 %
Track quality 100.0 %
Test CRC C075C152
Copy CRC C075C152
Track not present in AccurateRip database
Copy OK

Track 7

Filename C:\EAC Rips\07 - Louis Febre - Smallville Season 8 (End Title).wav

Peak level 100.0 %
Track quality 100.0 %
Test CRC FCE9260A
Copy CRC FCE9260A
Track not present in AccurateRip database
Copy OK

Track 8

Filename C:\EAC Rips\08 - Lee Zahler - Batman- The Electrical Brain.wav

Peak level 100.0 %
Track quality 100.0 %
Test CRC C6765D30
Copy CRC C6765D30
Track not present in AccurateRip database
Copy OK

Track 9

Filename C:\EAC Rips\09 - Danny Elfman - The Batman Theme (Album Version).wav

Peak level 100.0 %
Track quality 100.0 %
Test CRC 7E0228D4
Copy CRC 7E0228D4
Track not present in AccurateRip database
Copy OK

Track 10

Filename C:\EAC Rips\10 - John Gart - The Adventures Of Batman.wav

Peak level 99.5 %
Track quality 100.0 %
Test CRC 1ADC2660
Copy CRC 1ADC2660
Track not present in AccurateRip database
Copy OK

Track 11

Filename C:\EAC Rips\11 - Neal Hefti - Batman TV Series Theme.wav

Peak level 97.7 %
Track quality 100.0 %
Test CRC B062DB3C
Copy CRC B062DB3C
Track not present in AccurateRip database
Copy OK

Track 12

Filename C:\EAC Rips\12 - Andy Sturmer - Batman- The Brave And The Bold Theme.wav

Peak level 99.1 %
Track quality 100.0 %
Test CRC 45293133
Copy CRC 45293133
Track not present in AccurateRip database
Copy OK

Track 13

Filename C:\EAC Rips\13 - Kristopher Carter - Batman Beyond (Main Title).wav

Peak level 100.0 %
Track quality 100.0 %
Test CRC DCB40972
Copy CRC DCB40972
Track not present in AccurateRip database
Copy OK

Track 14

Filename C:\EAC Rips\14 - Hans Zimmer & James Newton Howard - Molossus From Batman Begins.wav

Peak level 99.0 %
Track quality 99.9 %
Test CRC 4A369F47
Copy CRC 4A369F47
Track not present in AccurateRip database
Copy OK

Track 15

Filename C:\EAC Rips\15 - John Gart - Justice League Of America.wav

Peak level 97.7 %
Track quality 100.0 %
Test CRC 170FDB21
Copy CRC 170FDB21
Track not present in AccurateRip database
Copy OK

Track 16

Filename C:\EAC Rips\16 - Hoyt Curtin - Super Friends.wav

Peak level 97.7 %
Track quality 100.0 %
Test CRC 7C413F99
Copy CRC 7C413F99
Track not present in AccurateRip database
Copy OK

Track 17

Filename C:\EAC Rips\17 - Hoyt Curtin - The All New Super Friends Hour.wav

Peak level 98.3 %
Track quality 100.0 %
Test CRC 58C8A5A5
Copy CRC 58C8A5A5
Track not present in AccurateRip database
Copy OK

Track 18

Filename C:\EAC Rips\18 - Michael McCuistion - Justice League Unlimited Theme.wav

Peak level 97.7 %
Track quality 100.0 %
Test CRC A7398FB4
Copy CRC A7398FB4
Track not present in AccurateRip database
Copy OK

Track 19

Filename C:\EAC Rips\19 - Fred Werner - Legends Of The Superheroes.wav

Peak level 98.7 %
Track quality 100.0 %
Test CRC 0E8FC2CB
Copy CRC 0E8FC2CB
Track not present in AccurateRip database
Copy OK

Track 20

Filename C:\EAC Rips\20 - John Gart - The Teen Titans.wav

Peak level 99.3 %
Track quality 100.0 %
Test CRC 146768F9
Copy CRC 146768F9
Track not present in AccurateRip database
Copy OK

Track 21

Filename C:\EAC Rips\21 - John Gart - Aquaman.wav

Peak level 100.0 %
Track quality 100.0 %
Test CRC FBFC9085
Copy CRC FBFC9085
Track not present in AccurateRip database
Copy OK

Track 22

Filename C:\EAC Rips\22 - Christopher Stone - Swamp Thing.wav

Peak level 97.7 %
Track quality 100.0 %
Test CRC 27B13545
Copy CRC 27B13545
Track not present in AccurateRip database
Copy OK

Track 23

Filename C:\EAC Rips\23 - Jeff Michael & Yvette H. Blais - Shazam.wav

Peak level 98.6 %
Track quality 100.0 %
Test CRC 920DF6EE
Copy CRC 920DF6EE
Track not present in AccurateRip database
Copy OK

Track 24

Filename C:\EAC Rips\24 - John Gart - The Flash.wav

Peak level 97.7 %
Track quality 99.6 %
Test CRC 8DF21896
Copy CRC 8DF21896
Track not present in AccurateRip database
Copy OK

Track 25

Filename C:\EAC Rips\25 - John Gart - Green Lantern.wav

Peak level 97.7 %
Track quality 100.0 %
Test CRC 17EB8947
Copy CRC 17EB8947
Track not present in AccurateRip database
Copy OK

Track 26

Filename C:\EAC Rips\26 - Robert J Kral - Green Lantern First Flight.wav

Peak level 100.0 %
Track quality 100.0 %
Test CRC FA0095A1
Copy CRC FA0095A1
Track not present in AccurateRip database
Copy OK

Track 27

Filename C:\EAC Rips\27 - John Gart - The Atom.wav

Peak level 97.7 %
Track quality 99.6 %
Test CRC 520DA601
Copy CRC 520DA601
Track not present in AccurateRip database
Copy OK

Track 28

Filename C:\EAC Rips\28 - John Gart - Hawkman.wav

Peak level 97.8 %
Track quality 100.0 %
Test CRC 020D4878
Copy CRC 020D4878
Track not present in AccurateRip database
Copy OK

Track 29

Filename C:\EAC Rips\29 - Dean Elliott - Plastic Man Comedy Adventure Show.wav

Peak level 96.2 %
Track quality 100.0 %
Test CRC B9CDAAA5
Copy CRC B9CDAAA5
Track not present in AccurateRip database
Copy OK

Track 30

Filename C:\EAC Rips\30 - Christopher Drake - Wonder Woman The Animated Movie End Title.wav

Peak level 100.0 %
Track quality 100.0 %
Test CRC 57DD68B0
Copy CRC 57DD68B0
Track not present in AccurateRip database
Copy OK

Track 31

Filename C:\EAC Rips\31 - Charles Fox & Norman Gimbel - Wonder Woman.wav

Peak level 97.7 %
Track quality 100.0 %
Test CRC 046C10DD
Copy CRC 046C10DD
Track not present in AccurateRip database
Copy OK

None of the tracks are present in the AccurateRip database

No errors occurred

End of status report
REM DATE 2010
REM DISCID A809DE1F
REM COMMENT "ExactAudioCopy v0.99pb5"
PERFORMER "Various"
TITLE "The Music Of DC Comics: 75th Anniversary Collection"
FILE "01 - Sammy Timberg - Superman March.wav" WAVE
TRACK 01 AUDIO
TITLE "Superman March"
PERFORMER "Sammy Timberg"
INDEX 01 00:00:00
FILE "02 - John Williams - Theme from Superman (Album version).wav" WAVE
TRACK 02 AUDIO
TITLE "Theme from Superman (Album version)"
PERFORMER "John Williams"
INDEX 01 00:00:00
FILE "03 - John Gart - The New Adventures of Superman.wav" WAVE
TRACK 03 AUDIO
TITLE "The New Adventures of Superman"
PERFORMER "John Gart"
INDEX 01 00:00:00
FILE "04 - Jay Gruska - Lois and Clark - The New Adventures of Superman.wav" WAVE
TRACK 04 AUDIO
TITLE "Lois and Clark / The New Adventures Of Superman"
PERFORMER "Jay Gruska"
INDEX 01 00:00:00
FILE "05 - John Gart - The Adventures of Superboy.wav" WAVE
TRACK 05 AUDIO
TITLE "The Adventures of Superboy"
PERFORMER "John Gart"
INDEX 01 00:00:00
FILE "06 - Kevin Kiner - Superboy.wav" WAVE
TRACK 06 AUDIO
TITLE "Superboy"
PERFORMER "Kevin Kiner"
INDEX 01 00:00:00
FILE "07 - Louis Febre - Smallville Season 8 (End Title).wav" WAVE
TRACK 07 AUDIO
TITLE "Smallville Season 8 (End Title)"
PERFORMER "Louis Febre"
INDEX 01 00:00:00
FILE "08 - Lee Zahler - Batman- The Electrical Brain.wav" WAVE
TRACK 08 AUDIO
TITLE "Batman: The Electrical Brain"
PERFORMER "Lee Zahler"
INDEX 01 00:00:00
FILE "09 - Danny Elfman - The Batman Theme (Album version).wav" WAVE
TRACK 09 AUDIO
TITLE "The Batman Theme (Album version)"
PERFORMER "Danny Elfman"
INDEX 01 00:00:00
FILE "10 - John Gart - The Adventures of Batman.wav" WAVE
TRACK 10 AUDIO
TITLE "The Adventures of Batman"
PERFORMER "John Gart"
INDEX 01 00:00:00
FILE "11 - Neal Hefti - Batman TV Series Theme.wav" WAVE
TRACK 11 AUDIO
TITLE "Batman TV Series Theme"
PERFORMER "Neal Hefti"
INDEX 01 00:00:00
FILE "12 - Andy Sturmer - Batman- The Brave and the Bold Theme.wav" WAVE
TRACK 12 AUDIO
TITLE "Batman: The Brave and the Bold Theme"
PERFORMER "Andy Sturmer"
INDEX 01 00:00:00
FILE "13 - Kristopher Carter - Batman Beyond (Main Title).wav" WAVE
TRACK 13 AUDIO
TITLE "Batman Beyond (Main Title)"
PERFORMER "Kristopher Carter"
INDEX 01 00:00:00
FILE "14 - Hans Zimmer & James Newton Howard - Molossus from Batman Begins.wav" WAVE
TRACK 14 AUDIO
TITLE "Molossus from Batman Begins"
PERFORMER "Hans Zimmer & James Newton Howard"
INDEX 01 00:00:00
FILE "15 - John Gart - Justice League of America.wav" WAVE
TRACK 15 AUDIO
TITLE "Justice League of America"
PERFORMER "John Gart"
INDEX 01 00:00:00
FILE "16 - Hoyt Curtin - Super Friends.wav" WAVE
TRACK 16 AUDIO
TITLE "Super Friends"
PERFORMER "Hoyt Curtin"
INDEX 01 00:00:00
FILE "17 - Hoyt Curtin - The All New Super Friends Hour.wav" WAVE
TRACK 17 AUDIO
TITLE "The All New Super Friends Hour"
PERFORMER "Hoyt Curtin"
INDEX 01 00:00:00
FILE "18 - Michael McCuistion - Justice League Unlimited Theme.wav" WAVE
TRACK 18 AUDIO
TITLE "Justice League Unlimited Theme"
PERFORMER "Michael McCuistion"
INDEX 01 00:00:00
FILE "19 - Fred Werner - Legends of the Superheroes.wav" WAVE
TRACK 19 AUDIO
TITLE "Legends of the Superheroes"
PERFORMER "Fred Werner"
INDEX 01 00:00:00
FILE "20 - John Gart - The Teen Titans.wav" WAVE
TRACK 20 AUDIO
TITLE "The Teen Titans"
PERFORMER "John Gart"
INDEX 01 00:00:00
FILE "21 - John Gart - Aquaman.wav" WAVE
TRACK 21 AUDIO
TITLE "Aquaman"
PERFORMER "John Gart"
INDEX 01 00:00:00
FILE "22 - Christopher Stone - Swamp Thing.wav" WAVE
TRACK 22 AUDIO
TITLE "Swamp Thing"
PERFORMER "Christopher Stone"
INDEX 01 00:00:00
FILE "23 - Jeff Michael & Yvette H. Blais - Shazam.wav" WAVE
TRACK 23 AUDIO
TITLE "Shazam"
PERFORMER "Jeff Michael & Yvette H. Blais"
INDEX 01 00:00:00
FILE "24 - John Gart - The Flash.wav" WAVE
TRACK 24 AUDIO
TITLE "The Flash"
PERFORMER "John Gart"
INDEX 01 00:00:00
FILE "25 - John Gart - Green Lantern.wav" WAVE
TRACK 25 AUDIO
TITLE "Green Lantern"
PERFORMER "John Gart"
INDEX 01 00:00:00
FILE "26 - Robert J. Kral - Green Lantern First Flight.wav" WAVE
TRACK 26 AUDIO
TITLE "Green Lantern First Flight"
PERFORMER "Robert J. Kral"
INDEX 01 00:00:00
FILE "27 - John Gart - The Atom.wav" WAVE
TRACK 27 AUDIO
TITLE "The Atom"
PERFORMER "John Gart"
INDEX 01 00:00:00
FILE "28 - John Gart - Hawkman.wav" WAVE
TRACK 28 AUDIO
TITLE "Hawkman"
PERFORMER "John Gart"
INDEX 01 00:00:00
FILE "29 - Dean Elliott - Plastic Man Comedy Adventure Show.wav" WAVE
TRACK 29 AUDIO
TITLE "Plastic Man Comedy Adventure Show"
PERFORMER "Dean Elliott"
INDEX 01 00:00:00
FILE "30 - Christopher Drake - Wonder Woman The Animated Movie End Title.wav" WAVE
TRACK 30 AUDIO
TITLE "Wonder Woman The Animated Movie End Title"
PERFORMER "Christopher Drake"
INDEX 01 00:00:00
FILE "31 - Charles Fox & Norman Gimbel - Wonder Woman.wav" WAVE
TRACK 31 AUDIO
TITLE "Wonder Woman"
PERFORMER "Charles Fox & Norman Gimbel"
INDEX 01 00:00:00
picpicpic
Для увеличения картинки щелкните мышкой по превью

Этот торрент недоступен для скачивания без регистрации, однако доступен по публичной magnet-ссылке (источники с публичных трекеров). Перед использованием ссылки прочтите, пожалуйста Пользовательское соглашение, а также как можно дольше оставайтесь на раздаче! Для того, чтобы скачать сам торрент-файл (который видит больше источников), а также для того, чтобы поблагодарить релизера, вам необходимо зарегистрироваться. Если регистрироваться лень - вы можете также попробовать скачать релиз по нашим партнерским ссылкам ниже. Кроме того, зарегистрированным пользователям не показывается всплывающая реклама при скачивании.

[underverse.me].t83576.torrent
Трекер: Зарегистрирован   [ 04.06.2017 09:35 ]  

Статус: проверено (by garry at 04.06.2017 09:45)
Поблагодарили: пока никто не поблагодарил...
Тип торрента: публичный - доступные источники с открытых трекеров: 
Размер: 256 MB (занимает 0,06 DVDR, для записи нужно 1 болванка DVDR/RW)
 
 
Похожие темы
Форум Тема Автор Торрент Отв. Посл. сооб.
OST & Score - Movie (Score) The Classic Film Music of Victor Young (1998) [MP3, 320 kbps] garry
0 | 0

0 | 866

3

26.11.2012 15:39

OST & Score - Game (Score) The Crew - Original Game Soundtrack (by Joseph Trapanese) (2014) [MP3, 320 kbps CBR] ZondeR
2 | 0

0 | 1136

2

20.02.2015 10:29

OST & Score - Game (Score) The Last of Us | Vol. 2 (by Gustavo Santaolalla) (2013, 2014) [iTunes AAC M4A, 256 kbps VBR] Web garry
0 | 0

0 | 728

2

07.07.2015 14:22

OST & Score - Game (Score) The Unspoken (by Gareth Coker) (2017) [MP3, 240-277 kbps VBR] Darkferse
0 | 0

0 | 324

1

12.06.2017 14:14

OST & Score - Game (Score) The Lord of the Rings Online [10th Anniversary Commemorative Soundtrack] (by Chance Thomas) (2017) [MP3, 320 kbps CBR] Web Darkferse
0 | 0

0 | 485

3

12.07.2017 19:15

OST & Score - Game (Score) The DOTA 2 (by Valve Studio Orchestra) (2017) [MP3, 320 kbps CBR] Darkferse
2 | 0

0 | 418

1

01.09.2017 11:04

OST & Score Movie, TV Show & Series, Game (Lossless) (Score) The Orange Box: Original Soundtrack (by Jonathan Coulton, Mike Morasky, Kelly Bailey) (2007) [FLAC (Tracks+.CUE), lossless] garry
5 | 0

0 | 1555

3

30.10.2012 15:51

OST & Score Movie, TV Show & Series, Game (Lossless) (Score) The Film Music of Charles Chaplin (1996 (1921-1936)) [FLAC (Tracks+CUE), lossless] garry
1 | 0

0 | 1346

3

25.08.2014 18:22

OST & Score Movie, TV Show & Series, Game (Lossless) (Score) The Incredible Adventures of Van Helsing | II (by Gergely Buttinger) (2014) [FLAC (Tracks), lossless] garry
0 | 0

0 | 807

2

15.10.2015 23:33

# OST & Score Movie, TV Show & Series, Game (Lossless) (Score) The Music of DC Comics, Volume 2 (2016) [FLAC (Tracks), lossless] Web garry
0 | 0

0 | 571

1

04.06.2017 09:54


Яндекс.Метрика powered by Sphinx


В Н И М А Н И Е
Сайт не распространяет и не хранит электронные версии произведений, а лишь бесплатно и без коммерческой выгоды (не требуя взамен платы,
SMS и т.д.) предоставляет доступ к создаваемому пользователями каталогу ссылок на торрент-файлы, которые содержат только списки хеш-сумм.
Убедительная просьба с жалобами обращаться напрямую к пользователю, разместившему торрент файл.

Вверх