Loading...
Error

Семейное ограбление / Mes tresors (Паскаль Бурдьо) [2017 г., комедия, BD-Remux] Dub

Статистика раздачи
Размер:  14,59 GB   |    Зарегистрирован:  1 год   |    Скачан:  6 раз

Полного источника не было: 4 часа

Сидов:  0  |  0 KB/s  ]   Личеров:  0  |  0 KB/s  ]

* - сиды/пиры с внешних источников

   
 
Автор Сообщение

makkol Пол:Муж

20-Май-2017 11:24

Семейное ограбление / Mes trésors
«Грабить - это у них в генах»


Год выпуска: 2017
Жанр: комедия
Производство: Франция [Canal+ [fr], Forecast Pictures, Orange Cinéma Séries]
Режиссер: Паскаль Бурдьо
В ролях: Жан Рено, Рем Кериси, Камиль Шаму, Бруно Санчес, Паскаль Демолон, Фамке Янссен
Сюжет фильма:
Анжела и Анжелика — две абсолютно разные девушки, которые не имеют ничего общего. Кроме, разве что, отца, которого они никогда не видели. И вот однажды он появился в их жизни. Вор международного масштаба решил наверстать упущенное, создав с дочерьми безумную команду, чтобы совершить ограбление века. И все бы ничего, только гениальный план Патрика дает сбой, и все идет не по запланированному сценарию...

  • Мировая премьера: 4 января 2017
  • Российская премьера: 26 января 2017


Качество видео: BD-Remux

Продолжительность: 01:30:38
Формат: MKV
Видео: MPEG-4 AVC, 1920x800 (16:9), 24.000 fps, 19.5 Mbps
Аудио: русский, дублированный (лицензия), DTS-HD MA 5.1, 48 kHz, 3499 kbps

Код:

Format : Matroska
Format version : Version 4 / Version 2
File size : 14.6 GiB
Duration : 1 h 30 min
Overall bit rate mode : Variable
Overall bit rate : 23.0 Mb/s
Encoded date : UTC 2017-05-20 03:43:26
Writing application : mkvmerge v11.0.0 ('Alive') 64bit
Writing library : libebml v1.3.4 + libmatroska v1.4.5

Video
ID : 1
Format : AVC
Format/Info : Advanced Video Codec
Format profile : High@L4
Format settings, CABAC : Yes
Format settings, ReFrames : 2 frames
Format settings, GOP : M=2, N=13
Codec ID : V_MPEG4/ISO/AVC
Duration : 1 h 30 min
Bit rate mode : Variable
Bit rate : 19.5 Mb/s
Maximum bit rate : 22.0 Mb/s
Width : 1 920 pixels
Height : 1 080 pixels
Display aspect ratio : 16:9
Frame rate mode : Constant
Frame rate : 24.000 FPS
Color space : YUV
Chroma subsampling : 4:2:0
Bit depth : 8 bits
Scan type : Progressive
Bits/(Pixel*Frame) : 0.393
Stream size : 12.4 GiB (85%)
Language : Russian
Default : Yes
Forced : No

Audio
ID : 2
Format : DTS
Format/Info : Digital Theater Systems
Format profile : MA / Core
Mode : 16
Format settings, Endianness : Big
Codec ID : A_DTS
Duration : 1 h 30 min
Bit rate mode : Variable / Constant
Bit rate : 3 499 kb/s / 1 509 kb/s
Channel(s) : 6 channels
Channel positions : Front: L C R, Side: L R, LFE
Sampling rate : 48.0 kHz
Frame rate : 93.750 FPS (512 spf)
Bit depth : 24 bits
Compression mode : Lossless / Lossy
Stream size : 2.22 GiB (15%)
Title : Dub [License]
Language : Russian
Default : Yes
Forced : No
Релиз:

picpicpicpicpic
Для увеличения картинки щелкните мышкой по превью

Этот торрент недоступен для скачивания без регистрации, однако доступен по публичной magnet-ссылке (источники с публичных трекеров). Перед использованием ссылки прочтите, пожалуйста Пользовательское соглашение, а также как можно дольше оставайтесь на раздаче! Для того, чтобы скачать сам торрент-файл (который видит больше источников), а также для того, чтобы поблагодарить релизера, вам необходимо зарегистрироваться. Если регистрироваться лень - вы можете также попробовать скачать релиз по нашим партнерским ссылкам ниже. Кроме того, зарегистрированным пользователям не показывается всплывающая реклама при скачивании.

[underverse.me].t82920.torrent
Трекер: Зарегистрирован   [ 20.05.2017 11:24 ]  

Статус: проверено (by makkol at 20.05.2017 11:25)
Поблагодарили: пока никто не поблагодарил...
Тип торрента: публичный - доступные источники с открытых трекеров: 
Размер: 14,59 GB (занимает 3,33 DVDR, для записи нужно 4 болванки DVDR/RW)
 
 
Похожие темы
Форум Тема Автор Торрент Отв. Посл. сооб.
Зарубежное кино [DVDRip, Low-Res HDRip, и т.д.] Семейное ограбление / Mes tresors (Паскаль Бурдьо) [2017 г., комедия, BDRip] Dub makkol
95 | 2

0 | 779

17

19.05.2017 13:00

Зарубежное кино [DVDRip, Low-Res HDRip, и т.д.] Семейное ограбление / Mes tresors / Family Heist (Паскаль Бурдьо / Pascal Bourdiaux) [2017 г., комедия, BDRip] Dub 90ytr90
6 | 3

0 | 311

4

28.06.2017 07:17

Зарубежное кино [DVDRip, Low-Res HDRip, и т.д.] Семейное ограбление / Mes tresors / Family Heist (Паскаль Бурдьо / Pascal Bourdiaux) [2017 г., комедия, BDRip-AVC] Dub 90ytr90
45 | 2

0 | 318

2

28.06.2017 07:27

Зарубежное кино [DVDRip, Low-Res HDRip, и т.д.] Семейное ограбление / Mes tresors / Family Heist (Паскаль Бурдьо / Pascal Bourdiaux) [2017 г., комедия, BDRip-AVC] Dub 90ytr90
14 | 0

0 | 343

9

28.06.2017 07:37

T Зарубежное кино [HDDVDRip / BDRip / WEB-DL / HDTV 1080/720р] Семейное ограбление / Mes tresors (Паскаль Бурдьо) [2017 г., комедия, WEB-DL 1080p] Dub (iTunes) + Original makkol
14 | 0

0 | 518

20

09.05.2017 10:25

Зарубежное кино [HDDVDRip / BDRip / WEB-DL / HDTV 1080/720р] Семейное ограбление / Mes tresors (Паскаль Бурдьо) [2017 г., комедия, BDRip 720p] Dub makkol
101 | 3

0 | 567

8

20.05.2017 11:14

Зарубежное кино [HDDVDRip / BDRip / WEB-DL / HDTV 1080/720р] Семейное ограбление / Mes tresors / Family Heist (Паскаль Бурдьо / Pascal Bourdiaux) [2017 г., комедия, BDRip 1080p] Dub + Original (Fre) 90ytr90
63 | 3

0 | 394

5

28.06.2017 07:31

Зарубежное кино [HDDVDRip / BDRip / WEB-DL / HDTV 1080/720р] Семейное ограбление / Mes tresors / Family Heist (Паскаль Бурдьо / Pascal Bourdiaux) [2017 г., комедия, BDRip 1080p] Dub 90ytr90
33 | 2

0 | 315

3

28.06.2017 07:37


Яндекс.Метрика powered by Sphinx


В Н И М А Н И Е
Сайт не распространяет и не хранит электронные версии произведений, а лишь бесплатно и без коммерческой выгоды (не требуя взамен платы,
SMS и т.д.) предоставляет доступ к создаваемому пользователями каталогу ссылок на торрент-файлы, которые содержат только списки хеш-сумм.
Убедительная просьба с жалобами обращаться напрямую к пользователю, разместившему торрент файл.

Вверх