Loading...
Error

Мы покупаем пожарную машину / Wir kaufen eine Feuerwehr (Ханс Крацерт) [1970 г., детский, семейный, DVDRip] Dub + Original

Статистика раздачи
Размер:  1,09 GB   |    Зарегистрирован:  6 месяцев   |    Скачан:  2 раза

Полного источника не было: 7 часов

Сидов:  0  |  0 KB/s  ]   Личеров:  0  |  0 KB/s  ]

* - сиды/пиры с внешних источников

   
 
Автор Сообщение

makkol Пол:Муж

18-Май-2017 12:09

Мы покупаем пожарную машину / Wir kaufen eine Feuerwehr


Год выпуска: 1970
Жанр: детский, семейный
Производство: ГДР [Deutsche Film (DEFA)]
Режиссер: Ханс Крацерт
В ролях: Эрвин Гешоннек, Ларс Пелшус, Фридель Новак, Петра Келлинг, Яки Шварц, Мадлен Лирк, Карин Полони, Хольгер Малих, Ханс-Йоахим Стиглер, Отто Криг-Хельбиг
Сюжет фильма:
Шестилетний Матти очень одинок. В школу его ещё не приняли, в детский сад он уже не ходит. Отец бывает дома редко, мать с утра до вечера занята маленькими близнецами. Вот почему Матти решил написать объявление: «Ищу друга на полный рабочий день». Таким другом оказался старый слесарь — дядя Клазен…

  • Мировая премьера: 13 декабря 1970


Качество видео: DVDRip

Продолжительность: 00:59:31
Формат: AVI
Видео: XviD, 720x544 (4:3), 25.000 fps, 2236 kbps
Аудио #1: русский, дублированный, AC3 2.0, 48 kHz, 192 kbps
Аудио #2: немецкий, оригинал, AC3 2.0, 48 kHz, 192 kbps

Код:

Формат                                   : AVI
Формат/Информация                        : Audio Video Interleave
Размер файла                             : 1,09 Гбайт
Продолжительность                        : 59 м.
Общий поток                              : 2629 Кбит/сек
Программа кодирования                    : VirtualDubMod 1.5.4.1 (build 2178/release)
Библиотека кодирования                   : VirtualDubMod build 2178/release

Видео
Идентификатор                            : 0
Формат                                   : MPEG-4 Visual
Профиль формата                          : Advanced Simple@L5
Параметр BVOP формата                    : 1
Параметр QPel формата                    : Нет
Параметр GMC формата                     : Без точки перехода
Параметр матрицы формата                 : Выборочная
Идентификатор кодека                     : XVID
Идентификатор кодека/Подсказка           : XviD
Продолжительность                        : 59 м.
Битрейт                                  : 2236 Кбит/сек
Ширина                                   : 720 пикселей
Высота                                   : 544 пикселя
Соотношение сторон                       : 4:3
Частота кадров                           : 25,000 кадров/сек
Цветовое пространство                    : YUV
Субдискретизация насыщенности            : 4:2:0
Битовая глубина                          : 8 бит
Тип развёртки                            : Прогрессивная
Метод сжатия                             : С потерями
Бит/(Пиксели*Кадры)                      : 0.228
Размер потока                            : 952 Мбайт (85%)
Библиотека кодирования                   : XviD 1.2.1 (UTC 2008-12-04)

Аудио #1
Идентификатор                            : 1
Формат                                   : AC-3
Формат/Информация                        : Audio Coding 3
Расширение режима                        : CM (complete main)
Параметр Endianness формата              : Big
Идентификатор кодека                     : 2000
Продолжительность                        : 59 м.
Вид битрейта                             : Постоянный
Битрейт                                  : 192 Кбит/сек
Каналы                                   : 2 канала
Расположение каналов                     : Front: L R
Частота                                  : 48,0 КГц
Метод сжатия                             : С потерями
Размер потока                            : 81,7 Мбайт (7%)
Выравнивание                             : Разделение по промежуткам
Продолжительность промежутка             : 96  мс. (2,40 видеокадра)
Время предзагрузки промежутка            : 96  мс.
Язык                                     : Russian

Аудио #2
Идентификатор                            : 2
Формат                                   : AC-3
Формат/Информация                        : Audio Coding 3
Расширение режима                        : CM (complete main)
Параметр Endianness формата              : Big
Идентификатор кодека                     : 2000
Продолжительность                        : 59 м.
Вид битрейта                             : Постоянный
Битрейт                                  : 192 Кбит/сек
Каналы                                   : 2 канала
Расположение каналов                     : Front: L R
Частота                                  : 48,0 КГц
Метод сжатия                             : С потерями
Размер потока                            : 81,7 Мбайт (7%)
Выравнивание                             : Разделение по промежуткам
Продолжительность промежутка             : 96  мс. (2,40 видеокадра)
Время предзагрузки промежутка            : 96  мс.
Язык                                     : Deutsch
Фильм дублирован на к/ст "Ленфильм" в 1971 году
Режиссёр дубляжа: Т. Родионова
Звукооператор: М. Лазарев
Автор русского текста: М. Пальчик
Редактор: А. Михайлова
picpicpicpicpic
Для увеличения картинки щелкните мышкой по превью

Этот торрент недоступен для скачивания без регистрации, однако доступен по публичной magnet-ссылке (источники с публичных трекеров). Перед использованием ссылки прочтите, пожалуйста Пользовательское соглашение, а также как можно дольше оставайтесь на раздаче! Для того, чтобы скачать сам торрент-файл (который видит больше источников), а также для того, чтобы поблагодарить релизера, вам необходимо зарегистрироваться. Если регистрироваться лень - вы можете также попробовать скачать релиз по нашим партнерским ссылкам ниже.

[underverse.me].t82810.torrent
Трекер: Зарегистрирован   [ 18.05.2017 12:09 ]  

Статус: проверено (by makkol at 18.05.2017 12:09)
Поблагодарили: пока никто не поблагодарил...
Тип торрента: публичный - доступные источники с открытых трекеров: 
Размер: 1,09 GB (занимает 0,25 DVDR, для записи нужно 1 болванка DVDR/RW)
 
 

Яндекс.Метрика powered by Sphinx


В Н И М А Н И Е
Сайт не распространяет и не хранит электронные версии произведений, а лишь бесплатно и без коммерческой выгоды (не требуя взамен платы,
SMS и т.д.) предоставляет доступ к создаваемому пользователями каталогу ссылок на торрент-файлы, которые содержат только списки хеш-сумм.
Убедительная просьба с жалобами обращаться напрямую к пользователю, разместившему торрент файл.

Вверх