Loading...
Error

Автобан / Collide (Эрен Криви) [2016 г., боевик, триллер, BDRip] Dub (iTunes)

Статистика раздачи
Размер:  1,42 GB   |    Зарегистрирован:  8 месяцев   |    Скачан:  18 раз
Сидов:  2  |  61 KB/s  ]   Личеров:  0  |  0 KB/s  ]

* - сиды/пиры с внешних источников

   
 
Автор Сообщение

makkol Пол:Муж

15-Май-2017 21:40

Автобан / Collide
«У скорости нет предела»


Год выпуска: 2016
Жанр: боевик, триллер
Производство: Великобритания , Германия [Automatik Entertainment, DMG Entertainment]
Режиссер: Эрен Криви
В ролях: Фелисити Джонс, Энтони Хопкинс, Николас Холт, Бен Кингсли, Надиа Хилкер, Марван Кензари, Клеменс Шик, Александр Йованович, Кристиан Перерсен, Линдси Элизабет
Сюжет фильма:
Американский турист Кейси Штайн, путешествуя с подругой по Европе, оказывается втянутым в разборки между двумя враждующими мафиозными группировками. Одну из них возглавляет Хаген, другую - Геран. И с этого момента начинается смертельно опасная гонка на запредельной скорости по автобанам Германии.

  • Мировая премьера: 10 июня 2016
  • Российская премьера: 2 марта 2017


Качество видео: BDRip [исх. Collide.2016.1080p.BluRay.REMUX.AVC.DTS-HD.MA.5.1-FGT]

Продолжительность: 01:38:42
Формат: AVI
Видео: XviD, 720x304 (2.35:1), 23.976 fps, 1660 kbps
Аудио: русский, дублированный (iTunes), AC3 5.1, 48 kHz, 384 kbps

Код:

Format : AVI
Format/Info : Audio Video Interleave
File size : 1.42 GiB
Duration : 1 h 38 min
Overall bit rate : 2 054 kb/s
Writing application : VirtualDubMod 1.5.10.2 (build 2540/release)
Writing library : VirtualDubMod build 2540/release

Video
ID : 0
Format : MPEG-4 Visual
Format profile : Advanced Simple@L5
Format settings, BVOP : 1
Format settings, QPel : No
Format settings, GMC : No warppoints
Format settings, Matrix : Custom
Codec ID : XVID
Codec ID/Hint : XviD
Duration : 1 h 38 min
Bit rate : 1 661 kb/s
Width : 720 pixels
Height : 304 pixels
Display aspect ratio : 2.35:1
Frame rate : 23.976 (24000/1001) FPS
Color space : YUV
Chroma subsampling : 4:2:0
Bit depth : 8 bits
Scan type : Progressive
Compression mode : Lossy
Bits/(Pixel*Frame) : 0.316
Stream size : 1.15 GiB (81%)
Writing library : XviD 73

Audio
ID : 1
Format : AC-3
Format/Info : Audio Coding 3
Mode extension : CM (complete main)
Format settings, Endianness : Big
Codec ID : 2000
Duration : 1 h 38 min
Bit rate mode : Constant
Bit rate : 384 kb/s
Channel(s) : 6 channels
Channel positions : Front: L C R, Side: L R, LFE
Sampling rate : 48.0 kHz
Frame rate : 31.250 FPS (1536 spf)
Compression mode : Lossy
Stream size : 271 MiB (19%)
Alignment : Split accross interleaves
Interleave, duration : 42 ms (1.00 video frame)
Interleave, preload duration : 500 ms
Релиз:

picpicpicpicpic
Для увеличения картинки щелкните мышкой по превью

Этот торрент недоступен для скачивания без регистрации, однако доступен по публичной magnet-ссылке (источники с публичных трекеров). Перед использованием ссылки прочтите, пожалуйста Пользовательское соглашение, а также как можно дольше оставайтесь на раздаче! Для того, чтобы скачать сам торрент-файл (который видит больше источников), а также для того, чтобы поблагодарить релизера, вам необходимо зарегистрироваться. Если регистрироваться лень - вы можете также попробовать скачать релиз по нашим партнерским ссылкам ниже. Кроме того, зарегистрированным пользователям не показывается всплывающая реклама при скачивании.

[underverse.me].t82703.torrent
Трекер: Зарегистрирован   [ 15.05.2017 21:40 ]  

Статус: T временная (by makkol at 15.05.2017 21:41)
Поблагодарили: 1 человек
Тип торрента: публичный - доступные источники с открытых трекеров: 
Размер: 1,42 GB (занимает 0,32 DVDR, для записи нужно 1 болванка DVDR/RW)
 
 
Похожие темы
Форум Тема Автор Торрент Отв. Посл. сооб.
Зарубежное кино [DVDRip, Low-Res HDRip, и т.д.] Автобан / Collide (Эрен Криви / Eran Creevy) [2016 г., боевик, триллер, HDRip] VO (Solod) 90ytr90
2 | 0

0 | 763

8

31.12.2016 11:59

Зарубежное кино [DVDRip, Low-Res HDRip, и т.д.] Автобан / Collide (Эрен Криви / Eran Creevy) [2016 г., боевик, триллер, HDRip-AVC] VO (Solod) 90ytr90
3 | 0

0 | 664

8

31.12.2016 12:03

Зарубежное кино [DVDRip, Low-Res HDRip, и т.д.] Автобан / Collide (Эрен Криви / Eran Creevy) [2016 г., боевик, триллер, BDRip] MVO (@MUZOBOZ@) 90ytr90
9 | 0

0 | 544

6

04.02.2017 10:48

T Зарубежное кино [DVD / HDDVD / BD / Remux] Автобан / Collide (Эрен Криви) [2016 г., боевик, триллер, BD-Remux] Rus (Dub iTunes) + Ukr (Dub iTunes) + Original makkol
0 | 0

0 | 798

0

15.05.2017 22:09

T Зарубежное кино [HDDVDRip / BDRip / WEB-DL / HDTV 1080/720р] Автобан / Collide (Эрен Криви) [2016 г., боевик, триллер, BDRip 1080p] Dub (iTunes) + MVO (@MUZOBOZ@) + Original makkol
3 | 0

0 | 693

8

15.05.2017 22:01

T Зарубежное кино [HDDVDRip / BDRip / WEB-DL / HDTV 1080/720р] Автобан / Collide (Эрен Криви) [2016 г., боевик, триллер, BDRip 720p] Dub (iTunes) + Original makkol
77 | 1

0 | 641

11

15.05.2017 21:52

T Зарубежное кино [HDDVDRip / BDRip / WEB-DL / HDTV 1080/720р] Автобан / Collide (Эрен Криви / Eran Creevy) [2016 г., боевик, триллер, BDRip 1080p] MVO (@MUZOBOZ@) 90ytr90
38 | 3

0 | 534

10

29.12.2016 18:13

T Зарубежное кино [HDDVDRip / BDRip / WEB-DL / HDTV 1080/720р] Автобан / Collide (Эрен Криви / Eran Creevy) [2016 г., боевик, триллер, BDRip 720p] MVO (@MUZOBOZ@) 90ytr90
33 | 0

0 | 484

10

29.12.2016 18:10

Зарубежное кино [HDDVDRip / BDRip / WEB-DL / HDTV 1080/720р] Автобан / Collide (Эрен Криви / Eran Creevy) [2016 г., боевик, триллер, BDRip 720p] MVO (@MUZOBOZ@) + VO (Solod) + Original (Eng) 90ytr90
5 | 0

0 | 266

6

04.02.2017 10:52


Яндекс.Метрика powered by Sphinx


В Н И М А Н И Е
Сайт не распространяет и не хранит электронные версии произведений, а лишь бесплатно и без коммерческой выгоды (не требуя взамен платы,
SMS и т.д.) предоставляет доступ к создаваемому пользователями каталогу ссылок на торрент-файлы, которые содержат только списки хеш-сумм.
Убедительная просьба с жалобами обращаться напрямую к пользователю, разместившему торрент файл.

Вверх