Loading...
Error

(Gypsy, Swing, Jazz Manouche) Angelo Debarre & Marius Apostol - Complicite (2013) [FLAC (Tracks+.CUE), Lossless]

Статистика раздачи
Размер:  349 MB   |    Зарегистрирован:  11 месяцев   |    Скачан:  3 раза

Полного источника не было: 22 дня

Сидов:  0  |  0 KB/s  ]   Личеров:  0  |  0 KB/s  ]

* - сиды/пиры с внешних источников

   
 
Автор Сообщение

Бишеп Пол:Муж

10-Май-2017 07:14

Angelo Debarre & Marius Apostol - Complicite

Жанр: Gypsy, Swing, Jazz Manouche
Год выпуска: 2013
Источник: CD
Производитель диска: Just Looking Productions - JLP06
Аудиокодек: FLAC
Тип рипа: Tracks+.CUE
Битрейт аудио: lossless
Продолжительность: 00:49:18


Треклист:
01. Double Scotch (3:00)
02. Aller Retour (3:25)
03. Alone (5:18)
04. Stradimarius (2:35)
05. Complicitй (4:50)
06. Swing for You (3:25)
07. Anouman (6:38)
08. Code Swing (3:51)
09. Swing de Samois (3:16)
10. Indiscretions (4:47)
11. Carmen (4:08)
12. Nuages (4:07)

Код:

Exact Audio Copy V1.0 beta 3 from 29. August 2011

EAC extraction logfile from 8. December 2013, 19:32

Angelo Debarre & Marius Apostol / Complicite

Used drive  : PLEXTOR DVDR   PX-860A   Adapter: 0  ID: 0

Read mode               : Secure
Utilize accurate stream : Yes
Defeat audio cache      : Yes
Make use of C2 pointers : No

Read offset correction                      : 96
Overread into Lead-In and Lead-Out          : No
Fill up missing offset samples with silence : Yes
Delete leading and trailing silent blocks   : No
Null samples used in CRC calculations       : Yes
Used interface                              : Native Win32 interface for Win NT & 2000
Gap handling                                : Appended to previous track

Used output format              : User Defined Encoder
Selected bitrate                : 1024 kBit/s
Quality                         : High
Add ID3 tag                     : No
Command line compressor         : C:\Program Files\Exact Audio Copy\Flac\flac.exe
Additional command line options : -8 -V -T "ARTIST=%artist%" -T "TITLE=%title%" -T "ALBUM=%albumtitle%" -T "DATE=%year%" -T "TRACKNUMBER=%tracknr%" -T "TOTALTRACKS=%numtracks%" -T "GENRE=%genre%" -T "ALBUMARTIST=%albumartist%" -T "ALBUM ARTIST=%albumartist%" -T "COMMENT=EAC Secure Mode, Test & Copy, AccurateRip, FLAC -8" %source%

TOC of the extracted CD

     Track |   Start  |  Length  | Start sector | End sector
    ---------------------------------------------------------
        1  |  0:00.00 |  2:59.46 |         0    |    13470   
        2  |  2:59.46 |  3:24.57 |     13471    |    28827   
        3  |  6:24.28 |  5:18.16 |     28828    |    52693   
        4  | 11:42.44 |  2:34.39 |     52694    |    64282   
        5  | 14:17.08 |  4:49.57 |     64283    |    86014   
        6  | 19:06.65 |  3:24.68 |     86015    |   101382   
        7  | 22:31.58 |  6:37.63 |    101383    |   131220   
        8  | 29:09.46 |  3:51.13 |    131221    |   148558   
        9  | 33:00.59 |  3:16.12 |    148559    |   163270   
       10  | 36:16.71 |  4:47.13 |    163271    |   184808   
       11  | 41:04.09 |  4:07.49 |    184809    |   203382   
       12  | 45:11.58 |  4:07.03 |    203383    |   221910   

Track  1

     Filename O:\DL\Angelo Debarre & Marius Apostol - Complicite (2013) [FLAC]\01 - Double Scotch.wav

     Pre-gap length  0:00:02.00

     Peak level 100.0 %
     Extraction speed 3.7 X
     Track quality 99.9 %
     Test CRC 47AF2A52
     Copy CRC 47AF2A52
     Track not present in AccurateRip database
     Copy OK

Track  2

     Filename O:\DL\Angelo Debarre & Marius Apostol - Complicite (2013) [FLAC]\02 - Aller Retour.wav

     Peak level 100.0 %
     Extraction speed 4.7 X
     Track quality 100.0 %
     Test CRC 310EF98D
     Copy CRC 310EF98D
     Track not present in AccurateRip database
     Copy OK

Track  3

     Filename O:\DL\Angelo Debarre & Marius Apostol - Complicite (2013) [FLAC]\03 - Alone.wav

     Peak level 100.0 %
     Extraction speed 5.4 X
     Track quality 100.0 %
     Test CRC 482EE0E1
     Copy CRC 482EE0E1
     Track not present in AccurateRip database
     Copy OK

Track  4

     Filename O:\DL\Angelo Debarre & Marius Apostol - Complicite (2013) [FLAC]\04 - Stradimarius.wav

     Peak level 100.0 %
     Extraction speed 5.2 X
     Track quality 100.0 %
     Test CRC 6D6F04B8
     Copy CRC 6D6F04B8
     Track not present in AccurateRip database
     Copy OK

Track  5

     Filename O:\DL\Angelo Debarre & Marius Apostol - Complicite (2013) [FLAC]\05 - Complicite.wav

     Pre-gap length  0:00:01.20

     Peak level 100.0 %
     Extraction speed 6.0 X
     Track quality 100.0 %
     Test CRC 5E5C3EC7
     Copy CRC 5E5C3EC7
     Track not present in AccurateRip database
     Copy OK

Track  6

     Filename O:\DL\Angelo Debarre & Marius Apostol - Complicite (2013) [FLAC]\06 - Swing for You.wav

     Pre-gap length  0:00:01.38

     Peak level 100.0 %
     Extraction speed 6.0 X
     Track quality 100.0 %
     Test CRC 790AF27D
     Copy CRC 790AF27D
     Track not present in AccurateRip database
     Copy OK

Track  7

     Filename O:\DL\Angelo Debarre & Marius Apostol - Complicite (2013) [FLAC]\07 - Anouman.wav

     Pre-gap length  0:00:01.01

     Peak level 100.0 %
     Extraction speed 6.9 X
     Track quality 100.0 %
     Test CRC C4A25A37
     Copy CRC C4A25A37
     Track not present in AccurateRip database
     Copy OK

Track  8

     Filename O:\DL\Angelo Debarre & Marius Apostol - Complicite (2013) [FLAC]\08 - Code Swing.wav

     Pre-gap length  0:00:01.26

     Peak level 100.0 %
     Extraction speed 6.8 X
     Track quality 100.0 %
     Test CRC 315E644F
     Copy CRC 315E644F
     Track not present in AccurateRip database
     Copy OK

Track  9

     Filename O:\DL\Angelo Debarre & Marius Apostol - Complicite (2013) [FLAC]\09 - Swing de Samois.wav

     Pre-gap length  0:00:01.13

     Peak level 100.0 %
     Extraction speed 5.9 X
     Track quality 99.9 %
     Test CRC 6D4002DF
     Copy CRC 6D4002DF
     Track not present in AccurateRip database
     Copy OK

Track 10

     Filename O:\DL\Angelo Debarre & Marius Apostol - Complicite (2013) [FLAC]\10 - Indiscretions.wav

     Pre-gap length  0:00:01.38

     Peak level 100.0 %
     Extraction speed 6.7 X
     Track quality 99.9 %
     Test CRC 4E9963C3
     Copy CRC 4E9963C3
     Track not present in AccurateRip database
     Copy OK

Track 11

     Filename O:\DL\Angelo Debarre & Marius Apostol - Complicite (2013) [FLAC]\11 - Carmen.wav

     Pre-gap length  0:00:01.88

     Peak level 100.0 %
     Extraction speed 6.7 X
     Track quality 99.9 %
     Test CRC E5061065
     Copy CRC E5061065
     Track not present in AccurateRip database
     Copy OK

Track 12

     Filename O:\DL\Angelo Debarre & Marius Apostol - Complicite (2013) [FLAC]\12 - Nuages.wav

     Pre-gap length  0:00:01.38

     Peak level 100.0 %
     Extraction speed 7.7 X
     Track quality 100.0 %
     Test CRC 622DF0BF
     Copy CRC 622DF0BF
     Track not present in AccurateRip database
     Copy OK

None of the tracks are present in the AccurateRip database

No errors occurred

End of status report

---- CUETools DB Plugin V2.1.3

[CTDB TOCID: _nKdKSO39Z5uOkvOv4.SULseHu0-] found, Submit result: _nKdKSO39Z5uOkvOv4.SULseHu0- has been confirmed
[6fddc738] (1/1) Accurately ripped

==== Log checksum 1244D375AD164A1A6CB4B895357BB71D4C8293D88AD159197C62AD838A5CB294 ====

Код:

REM GENRE Jazz
REM DATE 2013
REM DISCID AB0B8E0C
REM COMMENT "ExactAudioCopy v1.0b3"
PERFORMER "Angelo Debarre & Marius Apostol"
TITLE "Complicite"
FILE "01 - Double Scotch.flac" WAVE
  TRACK 01 AUDIO
    TITLE "Double Scotch"
    PERFORMER "Angelo Debarre & Marius Apostol"
    INDEX 01 00:00:00
FILE "02 - Aller Retour.flac" WAVE
  TRACK 02 AUDIO
    TITLE "Aller Retour"
    PERFORMER "Angelo Debarre & Marius Apostol"
    INDEX 01 00:00:00
FILE "03 - Alone.flac" WAVE
  TRACK 03 AUDIO
    TITLE "Alone"
    PERFORMER "Angelo Debarre & Marius Apostol"
    INDEX 01 00:00:00
FILE "04 - Stradimarius.flac" WAVE
  TRACK 04 AUDIO
    TITLE "Stradimarius"
    PERFORMER "Angelo Debarre & Marius Apostol"
    INDEX 01 00:00:00
FILE "05 - Complicite.flac" WAVE
  TRACK 05 AUDIO
    TITLE "Complicitй"
    PERFORMER "Angelo Debarre & Marius Apostol"
    INDEX 01 00:00:00
FILE "06 - Swing for You.flac" WAVE
  TRACK 06 AUDIO
    TITLE "Swing for You"
    PERFORMER "Angelo Debarre & Marius Apostol"
    INDEX 01 00:00:00
FILE "07 - Anouman.flac" WAVE
  TRACK 07 AUDIO
    TITLE "Anouman"
    PERFORMER "Angelo Debarre & Marius Apostol"
    INDEX 01 00:00:00
FILE "08 - Code Swing.flac" WAVE
  TRACK 08 AUDIO
    TITLE "Code Swing"
    PERFORMER "Angelo Debarre & Marius Apostol"
    INDEX 01 00:00:00
FILE "09 - Swing de Samois.flac" WAVE
  TRACK 09 AUDIO
    TITLE "Swing de Samois"
    PERFORMER "Angelo Debarre & Marius Apostol"
    INDEX 01 00:00:00
FILE "10 - Indiscretions.flac" WAVE
  TRACK 10 AUDIO
    TITLE "Indiscretions"
    PERFORMER "Angelo Debarre & Marius Apostol"
    INDEX 01 00:00:00
FILE "11 - Carmen.flac" WAVE
  TRACK 11 AUDIO
    TITLE "Carmen"
    PERFORMER "Angelo Debarre & Marius Apostol"
    INDEX 01 00:00:00
FILE "12 - Nuages.flac" WAVE
  TRACK 12 AUDIO
    TITLE "Nuages"
    PERFORMER "Angelo Debarre & Marius Apostol"
    INDEX 01 00:00:00

Этот торрент недоступен для скачивания без регистрации, однако доступен по публичной magnet-ссылке (источники с публичных трекеров). Перед использованием ссылки прочтите, пожалуйста Пользовательское соглашение, а также как можно дольше оставайтесь на раздаче! Для того, чтобы скачать сам торрент-файл (который видит больше источников), а также для того, чтобы поблагодарить релизера, вам необходимо зарегистрироваться. Если регистрироваться лень - вы можете также попробовать скачать релиз по нашим партнерским ссылкам ниже. Кроме того, зарегистрированным пользователям не показывается всплывающая реклама при скачивании.

[underverse.me].t82461.torrent
Трекер: Зарегистрирован   [ 10.05.2017 07:14 ]  

Статус: проверено (by Бишеп at 10.05.2017 07:14)
Поблагодарили: пока никто не поблагодарил...
Тип торрента: публичный - доступные источники с открытых трекеров: 
Размер: 349 MB (занимает 0,08 DVDR, для записи нужно 1 болванка DVDR/RW)
 
 

Яндекс.Метрика powered by Sphinx


В Н И М А Н И Е
Сайт не распространяет и не хранит электронные версии произведений, а лишь бесплатно и без коммерческой выгоды (не требуя взамен платы,
SMS и т.д.) предоставляет доступ к создаваемому пользователями каталогу ссылок на торрент-файлы, которые содержат только списки хеш-сумм.
Убедительная просьба с жалобами обращаться напрямую к пользователю, разместившему торрент файл.

Вверх