Loading...
Error

Золото / Gold (Стивен Гейган) [2016 г., триллер, драма, приключения, BD-Remux] Dub (iTunes) + MVO (Paradox&Omskbird Records) + AVO (Чадов) + Original

Статистика раздачи
Размер:  30,22 GB   |    Зарегистрирован:  11 месяцев   |    Скачан:  10 раз

Полного источника не было: 12 часов

Сидов:  0  |  0 KB/s  ]   Личеров:  0  |  0 KB/s  ]

* - сиды/пиры с внешних источников

   
 
Автор Сообщение

makkol Пол:Муж

08-Май-2017 22:21

Золото / Gold
«Его недооценивали»


Год выпуска: 2016
Жанр: триллер, драма, приключения
Производство: США [Black Bear Pictures, Hwy61, Living Films]
Режиссер: Стивен Гейган
В ролях: Мэттью МакКонахи, Эдгар Рамирес, Брайс Даллас Ховард, Кори Столл, Тоби Кеббелл, Билл Кэмп, Джошуа Харто, Тимоти С. Саймонс, Крэйг Т. Нельсон, Мэйкон Блэр
Сюжет фильма:
Сюжет рассказывает историю Кенни Уэллса — современного золотоискателя, хваткого дельца и мечтателя, который отчаянно ждёт шанса переломить судьбу. Оставшись без особых вариантов, Уэллс находит себе такого же неудачливого напарника — геолога, чтобы реализовать грандиозный план: найти золото в неизведанных индонезийских джунглях.

  • Мировая премьера: 29 декабря 2016
  • Российская премьера: 2 марта 2017


Качество видео: BD-Remux

Продолжительность: 02:00:20
Формат: MKV
Видео: MPEG-4 AVC, 1920x1080 (16:9), 23.976 fps, 26.9 Mbps
Аудио #1: русский, дублированный (iTunes), AC3 5.1, 48 kHz, 384 kbps
Аудио #2: русский, любительский многоголосый закадровый (Paradox&Omskbird Records), DTS 5.1, 48 kHz, 1510 kbps
Аудио #3: русский, авторский одноголосый закадровый (Михаил Чадов), DTS-HD MA 5.1, 48 kHz, 3623 kbps - ненорм. лексика
Аудио #4: английский, оригинал, DTS-HD MA 5.1, 48 kHz, 3569 kbps
Субтитры: английские вшитые отключаемые

Код:

Format : Matroska
Format version : Version 4 / Version 2
File size : 30.2 GiB
Duration : 2 h 0 min
Overall bit rate mode : Variable
Overall bit rate : 35.9 Mb/s
Encoded date : UTC 2017-05-08 15:39:12
Writing application : mkvmerge v11.0.0 ('Alive') 64bit
Writing library : libebml v1.3.4 + libmatroska v1.4.5

Video
ID : 1
Format : AVC
Format/Info : Advanced Video Codec
Format profile : High@L4.1
Format settings, CABAC : Yes
Format settings, ReFrames : 4 frames
Format settings, GOP : M=3, N=24
Codec ID : V_MPEG4/ISO/AVC
Duration : 2 h 0 min
Bit rate mode : Variable
Bit rate : 26.9 Mb/s
Maximum bit rate : 35.0 Mb/s
Width : 1 920 pixels
Height : 1 080 pixels
Display aspect ratio : 16:9
Frame rate mode : Constant
Frame rate : 23.976 (23976/1000) FPS
Original frame rate : 23.976 (24000/1001) FPS
Standard : NTSC
Color space : YUV
Chroma subsampling : 4:2:0
Bit depth : 8 bits
Scan type : Progressive
Bits/(Pixel*Frame) : 0.540
Stream size : 22.6 GiB (75%)
Language : English
Default : Yes
Forced : No
Color range : Limited
Color primaries : BT.709
Transfer characteristics : BT.709
Matrix coefficients : BT.709

Audio #1
ID : 2
Format : AC-3
Format/Info : Audio Coding 3
Format settings, Endianness : Big
Codec ID : A_AC3
Duration : 2 h 0 min
Bit rate mode : Constant
Bit rate : 384 kb/s
Channel(s) : 6 channels
Channel positions : Front: L C R, Side: L R, LFE
Sampling rate : 48.0 kHz
Frame rate : 31.250 FPS (1536 spf)
Bit depth : 16 bits
Compression mode : Lossy
Stream size : 331 MiB (1%)
Title : iTunes
Language : Russian
Service kind : Complete Main
Default : Yes
Forced : No

Audio #2
ID : 3
Format : DTS
Format/Info : Digital Theater Systems
Mode : 16
Format settings, Endianness : Big
Codec ID : A_DTS
Duration : 2 h 0 min
Bit rate mode : Constant
Bit rate : 1 510 kb/s
Channel(s) : 6 channels
Channel positions : Front: L C R, Side: L R, LFE
Sampling rate : 48.0 kHz
Frame rate : 93.750 FPS (512 spf)
Bit depth : 24 bits
Compression mode : Lossy
Stream size : 1.27 GiB (4%)
Title : MVO
Language : Russian
Default : No
Forced : No

Audio #3
ID : 4
Format : DTS
Format/Info : Digital Theater Systems
Format profile : MA / Core
Mode : 16
Format settings, Endianness : Big
Codec ID : A_DTS
Duration : 2 h 0 min
Bit rate mode : Variable / Constant
Bit rate : 3 623 kb/s / 1 509 kb/s
Channel(s) : 6 channels
Channel positions : Front: L C R, Side: L R, LFE
Sampling rate : 48.0 kHz
Frame rate : 93.750 FPS (512 spf)
Bit depth : 24 bits
Compression mode : Lossless / Lossy
Stream size : 3.05 GiB (10%)
Title : AVO [Chadov]
Language : Russian
Default : No
Forced : No

Audio #4
ID : 5
Format : DTS
Format/Info : Digital Theater Systems
Format profile : MA / Core
Mode : 16
Format settings, Endianness : Big
Codec ID : A_DTS
Duration : 2 h 0 min
Bit rate mode : Variable / Constant
Bit rate : 3 569 kb/s / 1 509 kb/s
Channel(s) : 6 channels
Channel positions : Front: L C R, Side: L R, LFE
Sampling rate : 48.0 kHz
Frame rate : 93.750 FPS (512 spf)
Bit depth : 24 bits
Compression mode : Lossless / Lossy
Stream size : 3.00 GiB (10%)
Title : Original
Language : English
Default : No
Forced : No

Text
ID : 6
Format : UTF-8
Codec ID : S_TEXT/UTF8
Codec ID/Info : UTF-8 Plain Text
Duration : 1 h 52 min
Bit rate : 64 b/s
Count of elements : 1714
Stream size : 53.1 KiB (0%)
Title : Full
Language : English
Default : No
Forced : No

Menu
00:00:00.000 : en:00:00:00.000
00:05:22.656 : en:00:05:22.656
00:12:13.358 : en:00:12:13.358
00:18:37.700 : en:00:18:37.700
00:25:58.932 : en:00:25:58.932
00:31:31.515 : en:00:31:31.515
00:37:36.129 : en:00:37:36.129
00:44:01.180 : en:00:44:01.180
00:50:37.201 : en:00:50:37.201
00:57:16.016 : en:00:57:16.016
01:04:13.725 : en:01:04:13.725
01:10:21.175 : en:01:10:21.175
01:16:30.419 : en:01:16:30.419
01:23:53.362 : en:01:23:53.362
01:30:24.419 : en:01:30:24.419
01:36:08.429 : en:01:36:08.429
01:39:51.986 : en:01:39:51.986
01:48:49.690 : en:01:48:49.690
01:52:55.102 : en:01:52:55.102
Релиз:

picpicpicpicpic
Для увеличения картинки щелкните мышкой по превью

Этот торрент недоступен для скачивания без регистрации, однако доступен по публичной magnet-ссылке (источники с публичных трекеров). Перед использованием ссылки прочтите, пожалуйста Пользовательское соглашение, а также как можно дольше оставайтесь на раздаче! Для того, чтобы скачать сам торрент-файл (который видит больше источников), а также для того, чтобы поблагодарить релизера, вам необходимо зарегистрироваться. Если регистрироваться лень - вы можете также попробовать скачать релиз по нашим партнерским ссылкам ниже. Кроме того, зарегистрированным пользователям не показывается всплывающая реклама при скачивании.

[underverse.me].t82352.torrent
Трекер: Зарегистрирован   [ 08.05.2017 22:21 ]  

Статус: T временная (by makkol at 08.05.2017 22:21)
Поблагодарили: пока никто не поблагодарил...
Тип торрента: публичный - доступные источники с открытых трекеров: 
Размер: 30,22 GB (занимает 6,9 DVDR, для записи нужно 7 болванок DVDR/RW)
 
 
Похожие темы
Форум Тема Автор Торрент Отв. Посл. сооб.
T Зарубежное кино [DVDRip, Low-Res HDRip, и т.д.] Золото / Gold (Стивен Гейган) [2016 г., триллер, драма, приключения, BDRip] Dub (iTunes) + AVO (Чадов) makkol
17 | 5

0 | 569

17

08.05.2017 21:55

T Зарубежное кино [DVDRip, Low-Res HDRip, и т.д.] Золото / Gold (Стивен Гейган) [2016 г., триллер, драма, приключения, BDRip] Dub (iTunes) makkol
328 | 5

1 | 623

19

10.05.2017 13:31

T Зарубежное кино [DVDRip, Low-Res HDRip, и т.д.] Золото / Gold (Стивен Гейган) [2016 г., триллер, драма, приключения, WEB-DLRip] MVO (Синема УС) makkol
1 | 3

0 | 703

9

19.04.2017 10:44

T Зарубежное кино [DVDRip, Low-Res HDRip, и т.д.] Золото / Gold (Стивен Гейган) [2016 г., триллер, драма, приключения, WEB-DLRip] MVO (Paradox&Omskbird records) makkol
0 | 3

0 | 591

14

19.04.2017 10:54

T Зарубежное кино [HDDVDRip / BDRip / WEB-DL / HDTV 1080/720р] Золото / Gold (Стивен Гейган) [2016 г., триллер, драма, приключения, WEB-DL 720p] MVO (Синема УС) makkol
2 | 0

0 | 684

13

19.04.2017 11:02

T Зарубежное кино [HDDVDRip / BDRip / WEB-DL / HDTV 1080/720р] Золото / Gold (Стивен Гейган) [2016 г., триллер, драма, приключения, WEB-DL 1080p] MVO (Синема УС) makkol
1 | 0

0 | 886

19

19.04.2017 11:09

T Зарубежное кино [HDDVDRip / BDRip / WEB-DL / HDTV 1080/720р] Золото / Gold (Стивен Гейган) [2016 г., триллер, драма, приключения, BDRip 720p] Dub (iTunes) + MVO (Paradox&Omskbird Records) + AVO (Чадов) + Original makkol
6 | 3

0 | 396

6

08.05.2017 22:06

T Зарубежное кино [HDDVDRip / BDRip / WEB-DL / HDTV 1080/720р] Золото / Gold (Стивен Гейган) [2016 г., триллер, драма, приключения, BDRip 1080p] Dub (iTunes) + MVO (Paradox&Omskbird Records) + AVO (Чадов) + Original makkol
11 | 3

0 | 554

14

08.05.2017 22:13

T Новинки кино [CAMRip, TS, DVDScr, WP, TC] Золото / Gold (Стивен Гейган / Stephen Gaghan) [2016 г., триллер, драма, приключения, DVDScr] MVO (Синема УС) 90ytr90
14 | 0

0 | 1003

16

12.02.2017 14:23

T Новинки кино [CAMRip, TS, DVDScr, WP, TC] Золото / Gold (Стивен Гейган / Stephen Gaghan) [2016 г., триллер, драма, приключения, DVDScr] MVO (Синема УС) 90ytr90
85 | 4

0 | 1110

30

12.02.2017 14:32


Яндекс.Метрика powered by Sphinx


В Н И М А Н И Е
Сайт не распространяет и не хранит электронные версии произведений, а лишь бесплатно и без коммерческой выгоды (не требуя взамен платы,
SMS и т.д.) предоставляет доступ к создаваемому пользователями каталогу ссылок на торрент-файлы, которые содержат только списки хеш-сумм.
Убедительная просьба с жалобами обращаться напрямую к пользователю, разместившему торрент файл.

Вверх