Loading...
Error

Проект Лазарь / Proyecto Lazaro / Realive (Матео Хиль) [2016 г., фантастика, драма, BD-Remux] VO (BadBajo) + Original

Статистика раздачи
Размер:  15,57 GB   |    Зарегистрирован:  11 месяцев   |    Скачан:  12 раз

Полного источника не было: 21 день

Сидов:  0  |  0 KB/s  ]   Личеров:  0  |  0 KB/s  ]

* - сиды/пиры с внешних источников

   
 
Автор Сообщение

makkol Пол:Муж

06-Май-2017 10:48

Проект Лазарь / Proyecto Lazaro / Realive
«Бессмертие - это только вопрос времени»


Год выпуска: 2016
Жанр: фантастика, драма
Производство: Бельгия , Франция , Испания [Arcadia Motion Pictures, Achaman Films AIE, Canal+ España]
Режиссер: Матео Хиль
В ролях: Том Хьюз, Шарлотта Ле Бон, Уна Чаплин, Бэрри Уорд, Хулио Перильян, Рафаэль Аранда, Бруно Севилья, Дэниэл Хорват, Алекс Хафнер, Годелив Ван ден Брандт
Сюжет фильма:
Научно-фантастическая драма о первом человеке, заморозившем свое тело, чтобы избежать смерти. Им стал молодой и амбициозный Марк, не пожелавший мириться с безнадежным диагнозом. Но его воскрешение спустя 70 лет оказывается совсем не таким, как он рассчитывал.

  • Мировая премьера: 23 июля 2016


Качество видео: BD-Remux

Продолжительность: 01:47:15
Формат: MKV
Видео: MPEG-4 AVC, 1920x1080 (16:9), 24.000 fps, 17.9 Mbps
Аудио #1: русский, любительский одноголосый закадровый (Андрей Важенин aka BadBajo), DTS-HD MA 5.1, 1472 kbps
Аудио #2: английский, оригинал, DTS-HD MA 5.1, 1411 kbps
Крионика (от греч. κρύος — холод, мороз) — технология сохранения в состоянии глубокого охлаждения («криоконсервация», «криосохранение») людей и животных в надежде на то, что в будущем их удастся оживить и при необходимости — вылечить. Иногда криоконсервации подвергают только голову или головной мозг сохраняемого организма.
При современном состоянии технологии криоконсервация людей и крупных животных необратима: заморозив человека, оживить его невозможно. Тем более невозможно оживить ампутированную голову или головной мозг. Поэтому людей подвергают криоконсервации только после юридически зафиксированной смерти мозга, в противном случае «крионирование» было бы убийством.
Крионика основывается на том, что смерть мозга, теоретически, может и не быть окончательной смертью. Предполагается, что когда-нибудь в будущем достижения высокоразвитой технологии позволят каким-либо образом оживить таких людей, хранящихся при низких температурах.
Существует открытое письмо в поддержку крионики, которое в 2016 году подписало 69 учёных мира. Сама гипотеза о возможности восстановления заключённой в головном мозге информации после смерти на современном уровне научного знания представляется принципиально недоказуемой. (Вики)

Код:

Format : Matroska
Format version : Version 4 / Version 2
File size : 15.6 GiB
Duration : 1 h 47 min
Overall bit rate mode : Variable
Overall bit rate : 20.8 Mb/s
Encoded date : UTC 2017-05-06 04:46:18
Writing application : mkvmerge v11.0.0 ('Alive') 64bit
Writing library : libebml v1.3.4 + libmatroska v1.4.5

Video
ID : 1
Format : AVC
Format/Info : Advanced Video Codec
Format profile : High@L4.1
Format settings, CABAC : Yes
Format settings, ReFrames : 4 frames
Codec ID : V_MPEG4/ISO/AVC
Duration : 1 h 47 min
Bit rate mode : Variable
Bit rate : 17.9 Mb/s
Maximum bit rate : 28.0 Mb/s
Width : 1 920 pixels
Height : 1 080 pixels
Display aspect ratio : 16:9
Frame rate mode : Constant
Frame rate : 24.000 FPS
Standard : NTSC
Color space : YUV
Chroma subsampling : 4:2:0
Bit depth : 8 bits
Scan type : Progressive
Bits/(Pixel*Frame) : 0.359
Stream size : 13.4 GiB (86%)
Language : English
Default : Yes
Forced : No
Color range : Limited
Color primaries : BT.709
Transfer characteristics : BT.709
Matrix coefficients : BT.709

Audio #1
ID : 2
Format : DTS
Format/Info : Digital Theater Systems
Format profile : MA / Core
Mode : 16
Format settings, Endianness : Big
Codec ID : A_DTS
Duration : 1 h 47 min
Bit rate mode : Variable / Constant
Bit rate : 1 472 kb/s / 768 kb/s
Channel(s) : 6 channels
Channel positions : Front: L C R, Side: L R, LFE
Sampling rate : 48.0 kHz
Frame rate : 93.750 FPS (512 spf)
Bit depth : 16 bits
Compression mode : Lossless / Lossy
Stream size : 1.10 GiB (7%)
Title : AVO [BadBajo]
Language : Russian
Default : Yes
Forced : No

Audio #2
ID : 3
Format : DTS
Format/Info : Digital Theater Systems
Format profile : MA / Core
Mode : 16
Format settings, Endianness : Big
Codec ID : A_DTS
Duration : 1 h 47 min
Bit rate mode : Variable / Constant
Bit rate : 1 411.2 kb/s / 768 kb/s
Channel(s) : 6 channels
Channel positions : Front: L C R, Side: L R, LFE
Sampling rate : 48.0 kHz
Frame rate : 93.750 FPS (512 spf)
Bit depth : 16 bits
Compression mode : Lossless / Lossy
Stream size : 1.06 GiB (7%)
Title : Original
Language : English
Default : No
Forced : No

Menu
00:00:00.000 : en:Chapter 1
00:13:27.791 : en:Chapter 2
00:26:19.750 : en:Chapter 3
00:38:56.625 : en:Chapter 4
00:51:34.791 : en:Chapter 5
01:05:01.041 : en:Chapter 6
01:15:54.583 : en:Chapter 7
01:27:01.916 : en:Chapter 8
Релиз:

picpicpicpicpic
Для увеличения картинки щелкните мышкой по превью

Этот торрент недоступен для скачивания без регистрации, однако доступен по публичной magnet-ссылке (источники с публичных трекеров). Перед использованием ссылки прочтите, пожалуйста Пользовательское соглашение, а также как можно дольше оставайтесь на раздаче! Для того, чтобы скачать сам торрент-файл (который видит больше источников), а также для того, чтобы поблагодарить релизера, вам необходимо зарегистрироваться. Если регистрироваться лень - вы можете также попробовать скачать релиз по нашим партнерским ссылкам ниже. Кроме того, зарегистрированным пользователям не показывается всплывающая реклама при скачивании.

[underverse.me].t82239.torrent
Трекер: Зарегистрирован   [ 06.05.2017 10:48 ]  

Статус: проверено (by makkol at 06.05.2017 10:49)
Поблагодарили: пока никто не поблагодарил...
Тип торрента: публичный - доступные источники с открытых трекеров: 
Размер: 15,57 GB (занимает 3,56 DVDR, для записи нужно 4 болванки DVDR/RW)
 
 
Похожие темы
Форум Тема Автор Торрент Отв. Посл. сооб.
T Зарубежное кино [DVDRip, Low-Res HDRip, и т.д.] Проект Лазарь / Proyecto Lazaro / Realive (Матео Хиль) [2016 г., фантастика, драма, HDRip] MVO (Синема УС) makkol
1 | 0

0 | 508

9

08.05.2017 21:34

Зарубежное кино [DVDRip, Low-Res HDRip, и т.д.] Проект Лазарь / Proyecto Lazaro / Realive (Матео Хиль) [2016 г., фантастика, драма, BDRip] VO (BadBajo) makkol
69 | 2

0 | 872

17

06.05.2017 10:27

Зарубежное кино [HDDVDRip / BDRip / WEB-DL / HDTV 1080/720р] Проект Лазарь / Proyecto Lazaro / Realive (Матео Хиль) [2016 г., фантастика, драма, BDRip 1080p] VO (BadBajo) + Original makkol
26 | 0

0 | 776

14

06.05.2017 10:39


Яндекс.Метрика powered by Sphinx


В Н И М А Н И Е
Сайт не распространяет и не хранит электронные версии произведений, а лишь бесплатно и без коммерческой выгоды (не требуя взамен платы,
SMS и т.д.) предоставляет доступ к создаваемому пользователями каталогу ссылок на торрент-файлы, которые содержат только списки хеш-сумм.
Убедительная просьба с жалобами обращаться напрямую к пользователю, разместившему торрент файл.

Вверх