Loading...
Error

Уголёк / Маленький угольщик / Le petit bougnat (Бернар Тублан-Мишель) [1970 г., драма, комедия, семейный, DVDRip] VO (Кошкин) + Original

Статистика раздачи
Размер:  1,25 GB   |    Зарегистрирован:  7 месяцев   |    Скачан:  1 раз

Полного источника не было: 7 часов

Сидов:  0  |  0 KB/s  ]   Личеров:  0  |  0 KB/s  ]

* - сиды/пиры с внешних источников

   
 
Автор Сообщение

makkol Пол:Муж

02-Май-2017 14:02

Уголёк / Маленький угольщик / Le petit bougnat


Год выпуска: 1970
Жанр: драма, комедия, семейный
Производство: Франция , Италия [Société Nouvelle de Cinématographie (SNC), Tritone Cinematografica]
Режиссер: Бернар Тублан-Мишель
В ролях: Клод Амазан, Изабель Аджани, Винченцо Сартини, Ги Алломбер, Мари-Клод Розье, Мишель Теоду, Кристоф Шарлету, Сильвия Алломбер, Мишель Жерар
Сюжет фильма:
Маленький Уголёк, получивший своё прозвище за цвет кожи, очень хочет поехать в летний лагерь. Но вот незадача: его приёмная мама забыла зарегистрировать его в списках отъезжающих детей. Но предприимчивый малец, тем не менее, находит способ попасть в вожделенный лагерь. С другой стороны, 13-летняя Роз ехать в этот лагерь не хочет ни в какую, но её отправляют туда насильно. Оба эти персонажа получат достаточную порцию приключений вместе с другими юными оторвами.

  • Мировая премьера: 6 мая 1970


Качество видео: DVDRip

Продолжительность: 01:34:02
Формат: AVI
Видео: XviD, 640x384 (5:3), 25.000 fps, 1502 kbps
Аудио #1: русский, любительский одноголосый закадровый (Василий Кошкин), AC3 2.0, 48 kHz, 192 kbps - по переводу Angora_Cat
Аудио #2: французский, оригинал, AC3 2.0, 48 kHz, 192 kbps

Код:

Формат                                   : AVI
Формат/Информация                        : Audio Video Interleave
Размер файла                             : 1,25 Гбайт
Продолжительность                        : 1 ч. 34 м.
Общий поток                              : 1901 Кбит/сек
Программа кодирования                    : VirtualDubModRus 1.5.10.2 (build 2542/release)
Библиотека кодирования                   : VirtualDubMod build 2542/release

Видео
Идентификатор                            : 0
Формат                                   : MPEG-4 Visual
Профиль формата                          : Advanced Simple@L5
Параметр BVOP формата                    : 1
Параметр QPel формата                    : Нет
Параметр GMC формата                     : Без точки перехода
Параметр матрицы формата                 : Default (MPEG)
Идентификатор кодека                     : XVID
Идентификатор кодека/Подсказка           : XviD
Продолжительность                        : 1 ч. 34 м.
Битрейт                                  : 1502 Кбит/сек
Ширина                                   : 640 пикселей
Высота                                   : 384 пикселя
Соотношение сторон                       : 5:3
Частота кадров                           : 25,000 кадров/сек
Цветовое пространство                    : YUV
Субдискретизация насыщенности            : 4:2:0
Битовая глубина                          : 8 бит
Тип развёртки                            : Прогрессивная
Метод сжатия                             : С потерями
Бит/(Пиксели*Кадры)                      : 0.245
Размер потока                            : 1011 Мбайт (79%)
Библиотека кодирования                   : XviD 1.2.1 (UTC 2008-12-04)

Аудио #1
Идентификатор                            : 1
Формат                                   : AC-3
Формат/Информация                        : Audio Coding 3
Расширение режима                        : CM (complete main)
Параметр Endianness формата              : Big
Идентификатор кодека                     : 2000
Продолжительность                        : 1 ч. 34 м.
Вид битрейта                             : Постоянный
Битрейт                                  : 192 Кбит/сек
Каналы                                   : 2 канала
Расположение каналов                     : Front: L R
Частота                                  : 48,0 КГц
Метод сжатия                             : С потерями
Размер потока                            : 129 Мбайт (10%)
Выравнивание                             : Разделение по промежуткам
Продолжительность промежутка             : 40  мс. (1,00 видеокадр)
Время предзагрузки промежутка            : 500  мс.

Аудио #2
Идентификатор                            : 2
Формат                                   : AC-3
Формат/Информация                        : Audio Coding 3
Расширение режима                        : CM (complete main)
Параметр Endianness формата              : Big
Идентификатор кодека                     : 2000
Продолжительность                        : 1 ч. 34 м.
Вид битрейта                             : Постоянный
Битрейт                                  : 192 Кбит/сек
Каналы                                   : 2 канала
Расположение каналов                     : Front: L R
Частота                                  : 48,0 КГц
Метод сжатия                             : С потерями
Размер потока                            : 129 Мбайт (10%)
Выравнивание                             : Разделение по промежуткам
Продолжительность промежутка             : 40  мс. (1,00 видеокадр)
Время предзагрузки промежутка            : 500  мс.
picpicpicpicpic
Для увеличения картинки щелкните мышкой по превью

Этот торрент недоступен для скачивания без регистрации, однако доступен по публичной magnet-ссылке (источники с публичных трекеров). Перед использованием ссылки прочтите, пожалуйста Пользовательское соглашение, а также как можно дольше оставайтесь на раздаче! Для того, чтобы скачать сам торрент-файл (который видит больше источников), а также для того, чтобы поблагодарить релизера, вам необходимо зарегистрироваться. Если регистрироваться лень - вы можете также попробовать скачать релиз по нашим партнерским ссылкам ниже.

[underverse.me].t82075.torrent
Трекер: Зарегистрирован   [ 02.05.2017 14:02 ]  

Статус: проверено (by makkol at 02.05.2017 14:03)
Поблагодарили: пока никто не поблагодарил...
Тип торрента: публичный - доступные источники с открытых трекеров: 
Размер: 1,25 GB (занимает 0,29 DVDR, для записи нужно 1 болванка DVDR/RW)
 
 

Яндекс.Метрика powered by Sphinx


В Н И М А Н И Е
Сайт не распространяет и не хранит электронные версии произведений, а лишь бесплатно и без коммерческой выгоды (не требуя взамен платы,
SMS и т.д.) предоставляет доступ к создаваемому пользователями каталогу ссылок на торрент-файлы, которые содержат только списки хеш-сумм.
Убедительная просьба с жалобами обращаться напрямую к пользователю, разместившему торрент файл.

Вверх