Loading...
Error

(Score) Бэтмен: Убийственная шутка / Batman: The Killing Joke (by Michael McCuistion, Kristopher Carter, Lolita Ritmanis) (2016) [FLAC (Tracks+.CUE), lossless]

Статистика раздачи
Размер:  344 MB   |    Зарегистрирован:  9 месяцев   |    Скачан:  1 раз

Полного источника не было: 15 часов

Сидов:  0  |  0 KB/s  ]   Личеров:  0  |  0 KB/s  ]

* - сиды/пиры с внешних источников

   
 
Автор Сообщение

garry Пол:Муж

02-Май-2017 13:17

Бэтмен: Убийственная шутка / Batman: The Killing Joke

Жанр: Score
Год выпуска: 2016
Источник: CD / KevinG
Производитель: USA, La-La Land Records, LLLCD 1388
Аудиокодек: FLAC
Тип рипа: Tracks+.CUE
Битрейт: lossless
Продолжительность: 01:06:02
01 - Lolita Ritmanis - How the Story Begins
02 - Michael McCuistion - We've Got a Robbery
03 - Kristopher Carter - Uncle not Pleased
04 - Michael McCuistion - Narcissist and Sociopath
05 - Kristopher Carter - Hit on Yacht
06 - Lolita Ritmanis - Serious Business
07 - Kristopher Carter - Bats and Babs Cross the Line
08 - Kristopher Carter - Rooftop Regrets
09 - Michael McCuistion - The Abyss
10 - Lolita Ritmanis - Batman was Right
11 - Kristopher Carter - Storage Unit Corpses
12 - Michael McCuistion - The Halls of Arkham
13 - Kristopher Carter - Joker Imposter
14 - Michael McCuistion - Making a Killing
15 - Lolita Ritmanis - Jeannie Flashback
16 - Michael McCuistion - Looking for a Clue
17 - Kristopher Carter - Broken Books
18 - Kristopher Carter - Hoods Present the Hood
19 - Michael McCuistion - Nothing will be the Same
20 - Lolita Ritmanis - Trapped in a Nightmare
21 - Lolita Ritmanis - Jeannie is Gone
22 - Kristopher Carter - Bats Pummels for Clues
23 - Michael McCuistion - Throw the Book
24 - Michael McCuistion - Horrifying Images
25 - Kristopher Carter - Bats Receives Tickets
26 - Lolita Ritmanis - Ghost Train Stops
27 - Kristopher Carter - Chemical Factory Heist
28 - Lolita Ritmanis - Batman Arrives at the Carnival
29 - Michael McCuistion - Merry-Go-Round Source
30 - Michael McCuistion - By the Book
31 - Lolita Ritmanis - All it Takes is One Bad Day
32 - Michael McCuistion - Let Me Help You
33 - Kristopher Carter - Oracle is Here
34 - Michael McCuistion, Kristopher Carter, Lolita Ritmanis - End Credits
35 - Mark Hamill - I Go Looney
X Lossless Decoder version 20151214 (149.1)

XLD extraction logfile from 2016-08-05 16:17:05 -0500

Various Artists / Batman: The Killing Joke (LLLCD1388)

Used drive : TSSTcorp BDDVDW SE-506CB (revision TS00)
Media type : Pressed CD

Ripper mode : XLD Secure Ripper
Disable audio cache : OK for the drive with a cache less than 1375KiB
Make use of C2 pointers : NO
Read offset correction : 6
Max retry count : 100
Gap status : Analyzed, Appended

TOC of the extracted CD
Track | Start | Length | Start sector | End sector
---------------------------------------------------------
1 | 00:00:00 | 00:55:14 | 0 | 4138
2 | 00:55:14 | 02:45:48 | 4139 | 16561
3 | 03:40:62 | 00:49:40 | 16562 | 20276
4 | 04:30:27 | 02:45:48 | 20277 | 32699
5 | 07:16:00 | 00:54:63 | 32700 | 36812
6 | 08:10:63 | 04:11:13 | 36813 | 55650
7 | 12:22:01 | 02:40:61 | 55651 | 67711
8 | 15:02:62 | 01:59:30 | 67712 | 76666
9 | 17:02:17 | 03:34:20 | 76667 | 92736
10 | 20:36:37 | 01:39:30 | 92737 | 100191
11 | 22:15:67 | 01:48:54 | 100192 | 108345
12 | 24:04:46 | 01:29:73 | 108346 | 115093
13 | 25:34:44 | 00:46:47 | 115094 | 118590
14 | 26:21:16 | 00:55:11 | 118591 | 122726
15 | 27:16:27 | 02:02:53 | 122727 | 131929
16 | 29:19:05 | 02:08:27 | 131930 | 141556
17 | 31:27:32 | 01:42:27 | 141557 | 149233
18 | 33:09:59 | 02:54:28 | 149234 | 162311
19 | 36:04:12 | 00:22:56 | 162312 | 164017
20 | 36:26:68 | 03:56:11 | 164018 | 181728
21 | 40:23:04 | 02:25:18 | 181729 | 192621
22 | 42:48:22 | 01:39:36 | 192622 | 200082
23 | 44:27:58 | 02:00:01 | 200083 | 209083
24 | 46:27:59 | 00:23:60 | 209084 | 210868
25 | 46:51:44 | 00:26:59 | 210869 | 212877
26 | 47:18:28 | 00:56:52 | 212878 | 217129
27 | 48:15:05 | 03:37:60 | 217130 | 233464
28 | 51:52:65 | 00:42:01 | 233465 | 236615
29 | 52:34:66 | 00:25:59 | 236616 | 238549
30 | 53:00:50 | 02:30:49 | 238550 | 249848
31 | 55:31:24 | 03:32:11 | 249849 | 265759
32 | 59:03:35 | 00:58:44 | 265760 | 270153
33 | 60:02:04 | 00:58:44 | 270154 | 274547
34 | 61:00:48 | 03:11:18 | 274548 | 288890
35 | 64:11:66 | 01:50:24 | 288891 | 297164

AccurateRip Summary
Disc not found in AccurateRip DB.

All Tracks
Album gain : -2.83 dB
Peak : 0.999939
Statistics
Read error : 0
Jitter error (maybe fixed) : 1
Retry sector count : 457
Damaged sector count : 0

Track 01
Filename : /Users/kgpat/Desktop/Convert/BatmanTKJFlac/01 Lolita Ritmanis - How The Story Begins.flac
Pre-gap length : 00:02:00

Track gain : 2.00 dB
Peak : 0.476410
CRC32 hash : 30BC218A
CRC32 hash (skip zero) : 30493D45
AccurateRip v1 signature : 32B87463
AccurateRip v2 signature : 24664078
->Track not present in AccurateRip database.
Statistics
Read error : 0
Jitter error (maybe fixed) : 0
Retry sector count : 0
Damaged sector count : 0

Track 02
Filename : /Users/kgpat/Desktop/Convert/BatmanTKJFlac/02 Michael McCuistion - We've Got A Robbery.flac
Pre-gap length : 00:02:00

Track gain : -4.15 dB
Peak : 0.980621
CRC32 hash : 02B39831
CRC32 hash (skip zero) : DA709D7B
AccurateRip v1 signature : 32973595
AccurateRip v2 signature : E603A6CD
->Track not present in AccurateRip database.
Statistics
Read error : 0
Jitter error (maybe fixed) : 0
Retry sector count : 0
Damaged sector count : 0

Track 03
Filename : /Users/kgpat/Desktop/Convert/BatmanTKJFlac/03 Kristopher Carter - Uncle Not Pleased.flac
Pre-gap length : 00:02:00

Track gain : 12.65 dB
Peak : 0.276855
CRC32 hash : 4270ABC7
CRC32 hash (skip zero) : B668A191
AccurateRip v1 signature : 48693754
AccurateRip v2 signature : ED42D5A2
->Track not present in AccurateRip database.
Statistics
Read error : 0
Jitter error (maybe fixed) : 0
Retry sector count : 0
Damaged sector count : 0

Track 04
Filename : /Users/kgpat/Desktop/Convert/BatmanTKJFlac/04 Michael McCuistion - Narcissist And Sociopath.flac
Pre-gap length : 00:02:00

Track gain : -1.94 dB
Peak : 0.997162
CRC32 hash : E4072C53
CRC32 hash (skip zero) : FF19FD99
AccurateRip v1 signature : E8ADCE9A
AccurateRip v2 signature : 6CE771D1
->Track not present in AccurateRip database.
Statistics
Read error : 0
Jitter error (maybe fixed) : 0
Retry sector count : 0
Damaged sector count : 0

Track 05
Filename : /Users/kgpat/Desktop/Convert/BatmanTKJFlac/05 Kristopher Carter - Hit On Yacht.flac
Pre-gap length : 00:02:00

Track gain : -4.61 dB
Peak : 0.964600
CRC32 hash : 8285210E
CRC32 hash (skip zero) : 15927E8D
AccurateRip v1 signature : 80CB97C9
AccurateRip v2 signature : 48309967
->Track not present in AccurateRip database.
Statistics
Read error : 0
Jitter error (maybe fixed) : 0
Retry sector count : 0
Damaged sector count : 0

Track 06
Filename : /Users/kgpat/Desktop/Convert/BatmanTKJFlac/06 Lolita Ritmanis - Serious Business.flac
Pre-gap length : 00:02:00

Track gain : -2.99 dB
Peak : 0.982391
CRC32 hash : 0A620012
CRC32 hash (skip zero) : C8661F42
AccurateRip v1 signature : B5091685
AccurateRip v2 signature : A0DEB1C8
->Track not present in AccurateRip database.
Statistics
Read error : 0
Jitter error (maybe fixed) : 0
Retry sector count : 0
Damaged sector count : 0

Track 07
Filename : /Users/kgpat/Desktop/Convert/BatmanTKJFlac/07 Kristopher Carter - Bats And Babs Cross The Line.flac
Pre-gap length : 00:02:00

Track gain : 0.88 dB
Peak : 0.731903
CRC32 hash : 50FC70A5
CRC32 hash (skip zero) : A10A9AE8
AccurateRip v1 signature : F0604F3C
AccurateRip v2 signature : 58576CFE
->Track not present in AccurateRip database.
Statistics
Read error : 0
Jitter error (maybe fixed) : 0
Retry sector count : 0
Damaged sector count : 0

Track 08
Filename : /Users/kgpat/Desktop/Convert/BatmanTKJFlac/08 Kristopher Carter - Rooftop Regrets.flac
Pre-gap length : 00:02:00

Track gain : 4.04 dB
Peak : 0.893524
CRC32 hash : 0677488C
CRC32 hash (skip zero) : B429AED5
AccurateRip v1 signature : 7C5EE87E
AccurateRip v2 signature : 0B61B699
->Track not present in AccurateRip database.
Statistics
Read error : 0
Jitter error (maybe fixed) : 0
Retry sector count : 0
Damaged sector count : 0

Track 09
Filename : /Users/kgpat/Desktop/Convert/BatmanTKJFlac/09 Michael McCuistion - The Abyss.flac
Pre-gap length : 00:02:00

Track gain : -4.06 dB
Peak : 0.999939
CRC32 hash : 4AAD817A
CRC32 hash (skip zero) : 21B8E682
AccurateRip v1 signature : 3CFB16E6
AccurateRip v2 signature : B092FFF7
->Track not present in AccurateRip database.
Statistics
Read error : 0
Jitter error (maybe fixed) : 0
Retry sector count : 0
Damaged sector count : 0

Track 10
Filename : /Users/kgpat/Desktop/Convert/BatmanTKJFlac/10 Lolita Ritmanis - Batman Was Right.flac
Pre-gap length : 00:02:00

Track gain : -0.79 dB
Peak : 0.653351
CRC32 hash : 361915FC
CRC32 hash (skip zero) : 542D343E
AccurateRip v1 signature : B891173E
AccurateRip v2 signature : 3C3B64F7
->Track not present in AccurateRip database.
Statistics
Read error : 0
Jitter error (maybe fixed) : 0
Retry sector count : 0
Damaged sector count : 0

Track 11
Filename : /Users/kgpat/Desktop/Convert/BatmanTKJFlac/11 Kristopher Carter - Storage Unit Corpses.flac
Pre-gap length : 00:02:00

Track gain : 5.37 dB
Peak : 0.406189
CRC32 hash : 84DF5469
CRC32 hash (skip zero) : 44623AA9
AccurateRip v1 signature : 0948B7C5
AccurateRip v2 signature : DC41CE9D
->Track not present in AccurateRip database.
Statistics
Read error : 0
Jitter error (maybe fixed) : 0
Retry sector count : 0
Damaged sector count : 0

Track 12
Filename : /Users/kgpat/Desktop/Convert/BatmanTKJFlac/12 Michael McCuistion - The Halls Of Arkham.flac
Pre-gap length : 00:02:00

Track gain : -0.46 dB
Peak : 0.892365
CRC32 hash : F9A62F09
CRC32 hash (skip zero) : E3DE195C
AccurateRip v1 signature : 9CBD7E1F
AccurateRip v2 signature : 37BB0694
->Track not present in AccurateRip database.
Statistics
Read error : 0
Jitter error (maybe fixed) : 0
Retry sector count : 0
Damaged sector count : 0

Track 13
Filename : /Users/kgpat/Desktop/Convert/BatmanTKJFlac/13 Kristopher Carter - Joker Imposter.flac
Pre-gap length : 00:02:00

Track gain : 1.08 dB
Peak : 0.932068
CRC32 hash : 3A10B373
CRC32 hash (skip zero) : C471F226
AccurateRip v1 signature : B8147B50
AccurateRip v2 signature : E570D346
->Track not present in AccurateRip database.
Statistics
Read error : 0
Jitter error (maybe fixed) : 0
Retry sector count : 0
Damaged sector count : 0

Track 14
Filename : /Users/kgpat/Desktop/Convert/BatmanTKJFlac/14 Michael McCuistion - Making A Killing.flac
Pre-gap length : 00:02:00

Track gain : -1.54 dB
Peak : 0.880737
CRC32 hash : 7757DF4F
CRC32 hash (skip zero) : 02A37DBD
AccurateRip v1 signature : 8B6C857B
AccurateRip v2 signature : 4DE84014
->Track not present in AccurateRip database.
Statistics
Read error : 0
Jitter error (maybe fixed) : 0
Retry sector count : 0
Damaged sector count : 0

Track 15
Filename : /Users/kgpat/Desktop/Convert/BatmanTKJFlac/15 Lolita Ritmanis - Jeannie Flashback.flac
Pre-gap length : 00:02:00

Track gain : 1.30 dB
Peak : 0.795837
CRC32 hash : 0A5BC2C7
CRC32 hash (skip zero) : EA8ED239
AccurateRip v1 signature : 17C98599
AccurateRip v2 signature : 83985747
->Track not present in AccurateRip database.
Statistics
Read error : 0
Jitter error (maybe fixed) : 0
Retry sector count : 1
Damaged sector count : 0

Track 16
Filename : /Users/kgpat/Desktop/Convert/BatmanTKJFlac/16 Michael McCuistion - Looking For A Clue.flac
Pre-gap length : 00:02:00

Track gain : 0.42 dB
Peak : 0.840271
CRC32 hash : 11827D65
CRC32 hash (skip zero) : 2CC6980A
AccurateRip v1 signature : 1481E975
AccurateRip v2 signature : D824DBD1
->Track not present in AccurateRip database.
Statistics
Read error : 0
Jitter error (maybe fixed) : 0
Retry sector count : 0
Damaged sector count : 0

Track 17
Filename : /Users/kgpat/Desktop/Convert/BatmanTKJFlac/17 Kristopher Carter - Broken Books.flac
Pre-gap length : 00:02:00

Track gain : -0.05 dB
Peak : 0.751160
CRC32 hash : 86CFE904
CRC32 hash (skip zero) : DF7ED9CE
AccurateRip v1 signature : 52621B4D
AccurateRip v2 signature : FD747C06
->Track not present in AccurateRip database.
Statistics
Read error : 0
Jitter error (maybe fixed) : 0
Retry sector count : 0
Damaged sector count : 0

Track 18
Filename : /Users/kgpat/Desktop/Convert/BatmanTKJFlac/18 Kristopher Carter - Hoods Present The Hood.flac
Pre-gap length : 00:02:00

Track gain : -0.10 dB
Peak : 0.704102
CRC32 hash : E20A5431
CRC32 hash (skip zero) : A8BC5636
AccurateRip v1 signature : 67E4BB7A
AccurateRip v2 signature : C3474566
->Track not present in AccurateRip database.
Statistics
Read error : 0
Jitter error (maybe fixed) : 0
Retry sector count : 0
Damaged sector count : 0

Track 19
Filename : /Users/kgpat/Desktop/Convert/BatmanTKJFlac/19 Michael McCuistion - Nothing Will Be The Same.flac
Pre-gap length : 00:02:00

Track gain : -4.77 dB
Peak : 0.922729
CRC32 hash : 6FFE9BA8
CRC32 hash (skip zero) : 6F8BF592
AccurateRip v1 signature : 5E81C498
AccurateRip v2 signature : F76C3E42
->Track not present in AccurateRip database.
Statistics
Read error : 0
Jitter error (maybe fixed) : 0
Retry sector count : 0
Damaged sector count : 0

Track 20
Filename : /Users/kgpat/Desktop/Convert/BatmanTKJFlac/20 Lolita Ritmanis - Trapped In A Nightmare.flac
Pre-gap length : 00:02:00

Track gain : -0.59 dB
Peak : 0.896820
CRC32 hash : 5E1C8FF2
CRC32 hash (skip zero) : AB08FFE6
AccurateRip v1 signature : 0043149D
AccurateRip v2 signature : F0CAB565
->Track not present in AccurateRip database.
Statistics
Read error : 0
Jitter error (maybe fixed) : 0
Retry sector count : 0
Damaged sector count : 0

Track 21
Filename : /Users/kgpat/Desktop/Convert/BatmanTKJFlac/21 Lolita Ritmanis - Jeannie Is Gone.flac
Pre-gap length : 00:02:00

Track gain : -3.38 dB
Peak : 0.748474
CRC32 hash : 6A23B020
CRC32 hash (skip zero) : 7FC13209
AccurateRip v1 signature : 105C9131
AccurateRip v2 signature : 417BC44F
->Track not present in AccurateRip database.
Statistics
Read error : 0
Jitter error (maybe fixed) : 1
Retry sector count : 456
Damaged sector count : 0

Track 22
Filename : /Users/kgpat/Desktop/Convert/BatmanTKJFlac/22 Kristopher Carter - Bats Pummels For Clues.flac
Pre-gap length : 00:02:00

Track gain : -1.29 dB
Peak : 0.887878
CRC32 hash : 07D51C88
CRC32 hash (skip zero) : 72D7E551
AccurateRip v1 signature : AE00CDC2
AccurateRip v2 signature : B9827711
->Track not present in AccurateRip database.
Statistics
Read error : 0
Jitter error (maybe fixed) : 0
Retry sector count : 0
Damaged sector count : 0

Track 23
Filename : /Users/kgpat/Desktop/Convert/BatmanTKJFlac/23 Michael McCuistion - Throw The Book.flac
Pre-gap length : 00:02:00

Track gain : 0.70 dB
Peak : 0.977295
CRC32 hash : 64338ADC
CRC32 hash (skip zero) : 2A18B90A
AccurateRip v1 signature : 9C4B76C1
AccurateRip v2 signature : 8AB8BB0F
->Track not present in AccurateRip database.
Statistics
Read error : 0
Jitter error (maybe fixed) : 0
Retry sector count : 0
Damaged sector count : 0

Track 24
Filename : /Users/kgpat/Desktop/Convert/BatmanTKJFlac/24 Michael McCuistion - Horrifying Images.flac
Pre-gap length : 00:02:00

Track gain : -3.90 dB
Peak : 0.902069
CRC32 hash : A77F8FA6
CRC32 hash (skip zero) : B15FD305
AccurateRip v1 signature : 1291653A
AccurateRip v2 signature : A6936414
->Track not present in AccurateRip database.
Statistics
Read error : 0
Jitter error (maybe fixed) : 0
Retry sector count : 0
Damaged sector count : 0

Track 25
Filename : /Users/kgpat/Desktop/Convert/BatmanTKJFlac/25 Kristopher Carter - Bats Receives Tickets.flac
Pre-gap length : 00:02:00

Track gain : -1.44 dB
Peak : 0.778687
CRC32 hash : 7FA56219
CRC32 hash (skip zero) : 70816263
AccurateRip v1 signature : 7EDC5E43
AccurateRip v2 signature : 281FE89A
->Track not present in AccurateRip database.
Statistics
Read error : 0
Jitter error (maybe fixed) : 0
Retry sector count : 0
Damaged sector count : 0

Track 26
Filename : /Users/kgpat/Desktop/Convert/BatmanTKJFlac/26 Lolita Ritmanis - Ghost Train Stops.flac
Pre-gap length : 00:02:00

Track gain : 0.68 dB
Peak : 0.737335
CRC32 hash : 836AE374
CRC32 hash (skip zero) : 491B528F
AccurateRip v1 signature : 128B5F28
AccurateRip v2 signature : D2D48AB4
->Track not present in AccurateRip database.
Statistics
Read error : 0
Jitter error (maybe fixed) : 0
Retry sector count : 0
Damaged sector count : 0

Track 27
Filename : /Users/kgpat/Desktop/Convert/BatmanTKJFlac/27 Kristopher Carter - Chemical Factory Heist.flac
Pre-gap length : 00:02:00

Track gain : -2.76 dB
Peak : 0.854431
CRC32 hash : 52844EFA
CRC32 hash (skip zero) : 3B55156A
AccurateRip v1 signature : 2EE1E6D0
AccurateRip v2 signature : A18CA39C
->Track not present in AccurateRip database.
Statistics
Read error : 0
Jitter error (maybe fixed) : 0
Retry sector count : 0
Damaged sector count : 0

Track 28
Filename : /Users/kgpat/Desktop/Convert/BatmanTKJFlac/28 Lolita Ritmanis - Batman Arrives At The Carnival.flac
Pre-gap length : 00:02:00

Track gain : -0.02 dB
Peak : 0.569031
CRC32 hash : 00066057
CRC32 hash (skip zero) : D8A51CCE
AccurateRip v1 signature : B2514A74
AccurateRip v2 signature : EE5F34E0
->Track not present in AccurateRip database.
Statistics
Read error : 0
Jitter error (maybe fixed) : 0
Retry sector count : 0
Damaged sector count : 0

Track 29
Filename : /Users/kgpat/Desktop/Convert/BatmanTKJFlac/29 Michael McCuistion - Merry-Go-Round Source.flac
Pre-gap length : 00:02:00

Track gain : -1.32 dB
Peak : 0.575378
CRC32 hash : 2A2B6A20
CRC32 hash (skip zero) : E95EFAEE
AccurateRip v1 signature : 1234D2C2
AccurateRip v2 signature : 78FE9BAF
->Track not present in AccurateRip database.
Statistics
Read error : 0
Jitter error (maybe fixed) : 0
Retry sector count : 0
Damaged sector count : 0

Track 30
Filename : /Users/kgpat/Desktop/Convert/BatmanTKJFlac/30 Michael McCuistion - By The Book.flac
Pre-gap length : 00:02:00

Track gain : -3.89 dB
Peak : 0.966034
CRC32 hash : A063FABF
CRC32 hash (skip zero) : 6D10393A
AccurateRip v1 signature : 5E521F10
AccurateRip v2 signature : E0C6EABF
->Track not present in AccurateRip database.
Statistics
Read error : 0
Jitter error (maybe fixed) : 0
Retry sector count : 0
Damaged sector count : 0

Track 31
Filename : /Users/kgpat/Desktop/Convert/BatmanTKJFlac/31 Lolita Ritmanis - All It Takes Is One Bad Day.flac
Pre-gap length : 00:02:00

Track gain : -2.21 dB
Peak : 0.787811
CRC32 hash : F26B606D
CRC32 hash (skip zero) : 2AA7E483
AccurateRip v1 signature : 9A7C8A00
AccurateRip v2 signature : D54D3322
->Track not present in AccurateRip database.
Statistics
Read error : 0
Jitter error (maybe fixed) : 0
Retry sector count : 0
Damaged sector count : 0

Track 32
Filename : /Users/kgpat/Desktop/Convert/BatmanTKJFlac/32 Michael McCuistion - Let Me Help You.flac
Pre-gap length : 00:02:00

Track gain : 1.37 dB
Peak : 0.715973
CRC32 hash : 64800367
CRC32 hash (skip zero) : 5A25A8B0
AccurateRip v1 signature : 12277002
AccurateRip v2 signature : B26F4FE7
->Track not present in AccurateRip database.
Statistics
Read error : 0
Jitter error (maybe fixed) : 0
Retry sector count : 0
Damaged sector count : 0

Track 33
Filename : /Users/kgpat/Desktop/Convert/BatmanTKJFlac/33 Kristopher Carter - Oracle Is Here.flac
Pre-gap length : 00:02:00

Track gain : -1.00 dB
Peak : 0.839142
CRC32 hash : CC149C07
CRC32 hash (skip zero) : 185602C0
AccurateRip v1 signature : 6BB5FFFA
AccurateRip v2 signature : B70D820F
->Track not present in AccurateRip database.
Statistics
Read error : 0
Jitter error (maybe fixed) : 0
Retry sector count : 0
Damaged sector count : 0

Track 34
Filename : /Users/kgpat/Desktop/Convert/BatmanTKJFlac/34 Michael McCuistion, Kristopher Carter, Lolita Ritmanis - End Credits.flac
Pre-gap length : 00:02:00

Track gain : 2.33 dB
Peak : 0.692291
CRC32 hash : EB93F21D
CRC32 hash (skip zero) : 26A63EA6
AccurateRip v1 signature : 82B74DC7
AccurateRip v2 signature : 7320EBA8
->Track not present in AccurateRip database.
Statistics
Read error : 0
Jitter error (maybe fixed) : 0
Retry sector count : 0
Damaged sector count : 0

Track 35
Filename : /Users/kgpat/Desktop/Convert/BatmanTKJFlac/35 Michael McCuistion, Kristopher Carter, Lolita Ritmanis Featuring Mark Hamill - I Go Looney.flac
Pre-gap length : 00:04:00

Track gain : -6.75 dB
Peak : 0.987671
CRC32 hash : BEDC9939
CRC32 hash (skip zero) : 68B5C1F1
AccurateRip v1 signature : 7856330F
AccurateRip v2 signature : 90496399
->Track not present in AccurateRip database.
Statistics
Read error : 0
Jitter error (maybe fixed) : 0
Retry sector count : 0
Damaged sector count : 0

No errors occurred

End of status report
TITLE "Batman: The Killing Joke"
REM GENRE "Soundtrack"
REM DATE "2016"
REM DISCNUMBER 1
REM TOTALDISCS 1
REM DISCID 140F7A23
REM REPLAYGAIN_ALBUM_GAIN -2.83 dB
REM REPLAYGAIN_ALBUM_PEAK 0.999939
REM COMPILATION TRUE
FILE "01 - Lolita Ritmanis - How the Story Begins.wav" WAVE
TRACK 01 AUDIO
TITLE "How the Story Begins"
PERFORMER "Lolita Ritmanis"
SONGWRITER "Lolita Ritmanis"
FLAGS DCP
REM REPLAYGAIN_TRACK_GAIN 2.00 dB
REM REPLAYGAIN_TRACK_PEAK 0.476410
INDEX 01 00:00:00
TRACK 02 AUDIO
TITLE "We've Got a Robbery"
PERFORMER "Michael McCuistion"
SONGWRITER "Michael McCuistion"
FLAGS DCP
REM REPLAYGAIN_TRACK_GAIN -4.15 dB
REM REPLAYGAIN_TRACK_PEAK 0.980621
INDEX 00 00:53:14
FILE "02 - Michael McCuistion - We've Got a Robbery.wav" WAVE
INDEX 01 00:00:00
TRACK 03 AUDIO
TITLE "Uncle not Pleased"
PERFORMER "Kristopher Carter"
SONGWRITER "Kristopher Carter"
FLAGS DCP
REM REPLAYGAIN_TRACK_GAIN 12.65 dB
REM REPLAYGAIN_TRACK_PEAK 0.276855
INDEX 00 02:43:48
FILE "03 - Kristopher Carter - Uncle not Pleased.wav" WAVE
INDEX 01 00:00:00
TRACK 04 AUDIO
TITLE "Narcissist and Sociopath"
PERFORMER "Michael McCuistion"
SONGWRITER "Michael McCuistion"
FLAGS DCP
REM REPLAYGAIN_TRACK_GAIN -1.94 dB
REM REPLAYGAIN_TRACK_PEAK 0.997162
INDEX 00 00:47:40
FILE "04 - Michael McCuistion - Narcissist and Sociopath.wav" WAVE
INDEX 01 00:00:00
TRACK 05 AUDIO
TITLE "Hit on Yacht"
PERFORMER "Kristopher Carter"
SONGWRITER "Kristopher Carter"
FLAGS DCP
REM REPLAYGAIN_TRACK_GAIN -4.61 dB
REM REPLAYGAIN_TRACK_PEAK 0.964600
INDEX 00 02:43:48
FILE "05 - Kristopher Carter - Hit on Yacht.wav" WAVE
INDEX 01 00:00:00
TRACK 06 AUDIO
TITLE "Serious Business"
PERFORMER "Lolita Ritmanis"
SONGWRITER "Lolita Ritmanis"
FLAGS DCP
REM REPLAYGAIN_TRACK_GAIN -2.99 dB
REM REPLAYGAIN_TRACK_PEAK 0.982391
INDEX 00 00:52:63
FILE "06 - Lolita Ritmanis - Serious Business.wav" WAVE
INDEX 01 00:00:00
TRACK 07 AUDIO
TITLE "Bats and Babs Cross the Line"
PERFORMER "Kristopher Carter"
SONGWRITER "Kristopher Carter"
FLAGS DCP
REM REPLAYGAIN_TRACK_GAIN 0.88 dB
REM REPLAYGAIN_TRACK_PEAK 0.731903
INDEX 00 04:09:13
FILE "07 - Kristopher Carter - Bats and Babs Cross the Line.wav" WAVE
INDEX 01 00:00:00
TRACK 08 AUDIO
TITLE "Rooftop Regrets"
PERFORMER "Kristopher Carter"
SONGWRITER "Kristopher Carter"
FLAGS DCP
REM REPLAYGAIN_TRACK_GAIN 4.04 dB
REM REPLAYGAIN_TRACK_PEAK 0.893524
INDEX 00 02:38:61
FILE "08 - Kristopher Carter - Rooftop Regrets.wav" WAVE
INDEX 01 00:00:00
TRACK 09 AUDIO
TITLE "The Abyss"
PERFORMER "Michael McCuistion"
SONGWRITER "Michael McCuistion"
FLAGS DCP
REM REPLAYGAIN_TRACK_GAIN -4.06 dB
REM REPLAYGAIN_TRACK_PEAK 0.999939
INDEX 00 01:57:30
FILE "09 - Michael McCuistion - The Abyss.wav" WAVE
INDEX 01 00:00:00
TRACK 10 AUDIO
TITLE "Batman was Right"
PERFORMER "Lolita Ritmanis"
SONGWRITER "Lolita Ritmanis"
FLAGS DCP
REM REPLAYGAIN_TRACK_GAIN -0.79 dB
REM REPLAYGAIN_TRACK_PEAK 0.653351
INDEX 00 03:32:20
FILE "10 - Lolita Ritmanis - Batman was Right.wav" WAVE
INDEX 01 00:00:00
TRACK 11 AUDIO
TITLE "Storage Unit Corpses"
PERFORMER "Kristopher Carter"
SONGWRITER "Kristopher Carter"
FLAGS DCP
REM REPLAYGAIN_TRACK_GAIN 5.37 dB
REM REPLAYGAIN_TRACK_PEAK 0.406189
INDEX 00 01:37:30
FILE "11 - Kristopher Carter - Storage Unit Corpses.wav" WAVE
INDEX 01 00:00:00
TRACK 12 AUDIO
TITLE "The Halls of Arkham"
PERFORMER "Michael McCuistion"
SONGWRITER "Michael McCuistion"
FLAGS DCP
REM REPLAYGAIN_TRACK_GAIN -0.46 dB
REM REPLAYGAIN_TRACK_PEAK 0.892365
INDEX 00 01:46:54
FILE "12 - Michael McCuistion - The Halls of Arkham.wav" WAVE
INDEX 01 00:00:00
TRACK 13 AUDIO
TITLE "Joker Imposter"
PERFORMER "Kristopher Carter"
SONGWRITER "Kristopher Carter"
FLAGS DCP
REM REPLAYGAIN_TRACK_GAIN 1.08 dB
REM REPLAYGAIN_TRACK_PEAK 0.932068
INDEX 00 01:27:73
FILE "13 - Kristopher Carter - Joker Imposter.wav" WAVE
INDEX 01 00:00:00
TRACK 14 AUDIO
TITLE "Making a Killing"
PERFORMER "Michael McCuistion"
SONGWRITER "Michael McCuistion"
FLAGS DCP
REM REPLAYGAIN_TRACK_GAIN -1.54 dB
REM REPLAYGAIN_TRACK_PEAK 0.880737
INDEX 00 00:44:47
FILE "14 - Michael McCuistion - Making a Killing.wav" WAVE
INDEX 01 00:00:00
TRACK 15 AUDIO
TITLE "Jeannie Flashback"
PERFORMER "Lolita Ritmanis"
SONGWRITER "Lolita Ritmanis"
FLAGS DCP
REM REPLAYGAIN_TRACK_GAIN 1.30 dB
REM REPLAYGAIN_TRACK_PEAK 0.795837
INDEX 00 00:53:11
FILE "15 - Lolita Ritmanis - Jeannie Flashback.wav" WAVE
INDEX 01 00:00:00
TRACK 16 AUDIO
TITLE "Looking for a Clue"
PERFORMER "Michael McCuistion"
SONGWRITER "Michael McCuistion"
FLAGS DCP
REM REPLAYGAIN_TRACK_GAIN 0.42 dB
REM REPLAYGAIN_TRACK_PEAK 0.840271
INDEX 00 02:00:53
FILE "16 - Michael McCuistion - Looking for a Clue.wav" WAVE
INDEX 01 00:00:00
TRACK 17 AUDIO
TITLE "Broken Books"
PERFORMER "Kristopher Carter"
SONGWRITER "Kristopher Carter"
FLAGS DCP
REM REPLAYGAIN_TRACK_GAIN -0.05 dB
REM REPLAYGAIN_TRACK_PEAK 0.751160
INDEX 00 02:06:27
FILE "17 - Kristopher Carter - Broken Books.wav" WAVE
INDEX 01 00:00:00
TRACK 18 AUDIO
TITLE "Hoods Present the Hood"
PERFORMER "Kristopher Carter"
SONGWRITER "Kristopher Carter"
FLAGS DCP
REM REPLAYGAIN_TRACK_GAIN -0.10 dB
REM REPLAYGAIN_TRACK_PEAK 0.704102
INDEX 00 01:40:27
FILE "18 - Kristopher Carter - Hoods Present the Hood.wav" WAVE
INDEX 01 00:00:00
TRACK 19 AUDIO
TITLE "Nothing will be the Same"
PERFORMER "Michael McCuistion"
SONGWRITER "Michael McCuistion"
FLAGS DCP
REM REPLAYGAIN_TRACK_GAIN -4.77 dB
REM REPLAYGAIN_TRACK_PEAK 0.922729
INDEX 00 02:52:28
FILE "19 - Michael McCuistion - Nothing will be the Same.wav" WAVE
INDEX 01 00:00:00
TRACK 20 AUDIO
TITLE "Trapped in a Nightmare"
PERFORMER "Lolita Ritmanis"
SONGWRITER "Lolita Ritmanis"
FLAGS DCP
REM REPLAYGAIN_TRACK_GAIN -0.59 dB
REM REPLAYGAIN_TRACK_PEAK 0.896820
INDEX 00 00:20:56
FILE "20 - Lolita Ritmanis - Trapped in a Nightmare.wav" WAVE
INDEX 01 00:00:00
TRACK 21 AUDIO
TITLE "Jeannie is Gone"
PERFORMER "Lolita Ritmanis"
SONGWRITER "Lolita Ritmanis"
FLAGS DCP
REM REPLAYGAIN_TRACK_GAIN -3.38 dB
REM REPLAYGAIN_TRACK_PEAK 0.748474
INDEX 00 03:54:11
FILE "21 - Lolita Ritmanis - Jeannie is Gone.wav" WAVE
INDEX 01 00:00:00
TRACK 22 AUDIO
TITLE "Bats Pummels for Clues"
PERFORMER "Kristopher Carter"
SONGWRITER "Kristopher Carter"
FLAGS DCP
REM REPLAYGAIN_TRACK_GAIN -1.29 dB
REM REPLAYGAIN_TRACK_PEAK 0.887878
INDEX 00 02:23:18
FILE "22 - Kristopher Carter - Bats Pummels for Clues.wav" WAVE
INDEX 01 00:00:00
TRACK 23 AUDIO
TITLE "Throw the Book"
PERFORMER "Michael McCuistion"
SONGWRITER "Michael McCuistion"
FLAGS DCP
REM REPLAYGAIN_TRACK_GAIN 0.70 dB
REM REPLAYGAIN_TRACK_PEAK 0.977295
INDEX 00 01:37:36
FILE "23 - Michael McCuistion - Throw the Book.wav" WAVE
INDEX 01 00:00:00
TRACK 24 AUDIO
TITLE "Horrifying Images"
PERFORMER "Michael McCuistion"
SONGWRITER "Michael McCuistion"
FLAGS DCP
REM REPLAYGAIN_TRACK_GAIN -3.90 dB
REM REPLAYGAIN_TRACK_PEAK 0.902069
INDEX 00 01:58:01
FILE "24 - Michael McCuistion - Horrifying Images.wav" WAVE
INDEX 01 00:00:00
TRACK 25 AUDIO
TITLE "Bats Receives Tickets"
PERFORMER "Kristopher Carter"
SONGWRITER "Kristopher Carter"
FLAGS DCP
REM REPLAYGAIN_TRACK_GAIN -1.44 dB
REM REPLAYGAIN_TRACK_PEAK 0.778687
INDEX 00 00:21:60
FILE "25 - Kristopher Carter - Bats Receives Tickets.wav" WAVE
INDEX 01 00:00:00
TRACK 26 AUDIO
TITLE "Ghost Train Stops"
PERFORMER "Lolita Ritmanis"
SONGWRITER "Lolita Ritmanis"
FLAGS DCP
REM REPLAYGAIN_TRACK_GAIN 0.68 dB
REM REPLAYGAIN_TRACK_PEAK 0.737335
INDEX 00 00:24:59
FILE "26 - Lolita Ritmanis - Ghost Train Stops.wav" WAVE
INDEX 01 00:00:00
TRACK 27 AUDIO
TITLE "Chemical Factory Heist"
PERFORMER "Kristopher Carter"
SONGWRITER "Kristopher Carter"
FLAGS DCP
REM REPLAYGAIN_TRACK_GAIN -2.76 dB
REM REPLAYGAIN_TRACK_PEAK 0.854431
INDEX 00 00:54:52
FILE "27 - Kristopher Carter - Chemical Factory Heist.wav" WAVE
INDEX 01 00:00:00
TRACK 28 AUDIO
TITLE "Batman Arrives at the Carnival"
PERFORMER "Lolita Ritmanis"
SONGWRITER "Lolita Ritmanis"
FLAGS DCP
REM REPLAYGAIN_TRACK_GAIN -0.02 dB
REM REPLAYGAIN_TRACK_PEAK 0.569031
INDEX 00 03:35:60
FILE "28 - Lolita Ritmanis - Batman Arrives at the Carnival.wav" WAVE
INDEX 01 00:00:00
TRACK 29 AUDIO
TITLE "Merry-Go-Round Source"
PERFORMER "Michael McCuistion"
SONGWRITER "Michael McCuistion"
FLAGS DCP
REM REPLAYGAIN_TRACK_GAIN -1.32 dB
REM REPLAYGAIN_TRACK_PEAK 0.575378
INDEX 00 00:40:01
FILE "29 - Michael McCuistion - Merry-Go-Round Source.wav" WAVE
INDEX 01 00:00:00
TRACK 30 AUDIO
TITLE "By the Book"
PERFORMER "Michael McCuistion"
SONGWRITER "Michael McCuistion"
FLAGS DCP
REM REPLAYGAIN_TRACK_GAIN -3.89 dB
REM REPLAYGAIN_TRACK_PEAK 0.966034
INDEX 00 00:23:59
FILE "30 - Michael McCuistion - By the Book.wav" WAVE
INDEX 01 00:00:00
TRACK 31 AUDIO
TITLE "All it Takes is One Bad Day"
PERFORMER "Lolita Ritmanis"
SONGWRITER "Lolita Ritmanis"
FLAGS DCP
REM REPLAYGAIN_TRACK_GAIN -2.21 dB
REM REPLAYGAIN_TRACK_PEAK 0.787811
INDEX 00 02:28:49
FILE "31 - Lolita Ritmanis - All it Takes is One Bad Day.wav" WAVE
INDEX 01 00:00:00
TRACK 32 AUDIO
TITLE "Let Me Help You"
PERFORMER "Michael McCuistion"
SONGWRITER "Michael McCuistion"
FLAGS DCP
REM REPLAYGAIN_TRACK_GAIN 1.37 dB
REM REPLAYGAIN_TRACK_PEAK 0.715973
INDEX 00 03:30:11
FILE "32 - Michael McCuistion - Let Me Help You.wav" WAVE
INDEX 01 00:00:00
TRACK 33 AUDIO
TITLE "Oracle is Here"
PERFORMER "Kristopher Carter"
SONGWRITER "Kristopher Carter"
FLAGS DCP
REM REPLAYGAIN_TRACK_GAIN -1.00 dB
REM REPLAYGAIN_TRACK_PEAK 0.839142
INDEX 00 00:56:44
FILE "33 - Kristopher Carter - Oracle is Here.wav" WAVE
INDEX 01 00:00:00
TRACK 34 AUDIO
TITLE "End Credits"
PERFORMER "Michael McCuistion, Kristopher Carter, Lolita Ritmanis"
SONGWRITER "Lolita Ritmanis/Michael McCuistion/Kristopher Carter"
FLAGS DCP
REM REPLAYGAIN_TRACK_GAIN 2.33 dB
REM REPLAYGAIN_TRACK_PEAK 0.692291
INDEX 00 00:56:44
FILE "34 - Michael McCuistion, Kristopher Carter, Lolita Ritmanis - End Credits.wav" WAVE
INDEX 01 00:00:00
TRACK 35 AUDIO
TITLE "I Go Looney"
PERFORMER "Mark Hamill"
SONGWRITER "Michael McCuistion/Lolita Ritmanis/Kristopher Carter"
FLAGS DCP
REM REPLAYGAIN_TRACK_GAIN -6.75 dB
REM REPLAYGAIN_TRACK_PEAK 0.987671
INDEX 00 03:07:18
FILE "35 - I Go Looney (performed by Mark Hamill).wav" WAVE
INDEX 01 00:00:00
picpicpic
Для увеличения картинки щелкните мышкой по превью

Этот торрент недоступен для скачивания без регистрации, однако доступен по публичной magnet-ссылке (источники с публичных трекеров). Перед использованием ссылки прочтите, пожалуйста Пользовательское соглашение, а также как можно дольше оставайтесь на раздаче! Для того, чтобы скачать сам торрент-файл (который видит больше источников), а также для того, чтобы поблагодарить релизера, вам необходимо зарегистрироваться. Если регистрироваться лень - вы можете также попробовать скачать релиз по нашим партнерским ссылкам ниже. Кроме того, зарегистрированным пользователям не показывается всплывающая реклама при скачивании.

[underverse.me].t82074.torrent
Трекер: Зарегистрирован   [ 02.05.2017 13:17 ]  

Статус: проверено (by garry at 02.05.2017 13:18)
Поблагодарили: пока никто не поблагодарил...
Тип торрента: публичный - доступные источники с открытых трекеров: 
Размер: 344 MB (занимает 0,08 DVDR, для записи нужно 1 болванка DVDR/RW)
 
 
Похожие темы
Форум Тема Автор Торрент Отв. Посл. сооб.
OST & Score - Movie (Score) Бэтмен: Начало | Темный рыцарь | Возрождение легенды / Batman Begins | The Dark Knight | Rises (by Hans Zimmer and James Newton Howard) (2005-2012) [iTunes AAC M4A, 256 kbps VBR] Web garry
1 | 0

0 | 2168

0

13.07.2012 18:27

OST & Score - Movie (Score) Бэтмен: Отвага и смелость / Batman: The Brave and the Bold (by Kristopher Carter, Lolita Ritmanis and Michael McCuistion) (2014 (2008-2011)) [MP3, 320 kbps] garry
0 | 0

0 | 1543

1

13.02.2014 18:49

OST & Score - Movie (Score) Бэтмен против Супермена: На заре справедливости | Лига справедливости / Batman v Superman: Dawn of Justice [Deluxe Edition] | Justice League (by Hans Zimmer, Junkie XL, Danny Elfman)... garry
1 | 0

0 | 1193

0

18.03.2016 19:46

OST & Score Movie, TV Show & Series, Game (Lossless) (Score) Бэтмен: Под колпаком / Batman: Under the Red Hood (by Christopher Drake) (2010) [FLAC (Tracks+.CUE), lossless] garry
0 | 1

0 | 2144

0

18.11.2010 12:15

# OST & Score Movie, TV Show & Series, Game (Lossless) (Score) Бэтмен | возвращается | навсегда / Batman | Returns | Forever (by Danny Elfman, Elliot Goldenthal) (1989-2012 (1989-1995)) [FLAC (Tracks+.CUE), lossless] garry
1 | 1

0 | 2385

0

10.01.2012 02:18

# OST & Score Movie, TV Show & Series, Game (Lossless) (Score) Бэтмен / Batman: The Animated Series, Volume 1-4 (by Shirley Walker, Lolita Ritmanis and Michael McCuistion) (2008-2016 (1992-1993)) [FLAC (Tracks+.CUE), lossless] garry
0 | 0

0 | 3698

0

03.11.2012 19:18

OST & Score Movie, TV Show & Series, Game (Lossless) (Score) Бэтмен: Маска Фантазма / Batman: Mask of the Phantasm (by Shirley Walker) (1993-2009) [FLAC (Tracks+.CUE), lossless] garry
2 | 0

0 | 1329

0

11.10.2014 09:22

OST & Score Movie, TV Show & Series, Game (Lossless) (Score) Бэтмен: Нападение на Аркхэм / Batman: Assault on Arkham (by Robert J. Kral) (2014) [FLAC (Tracks+.CUE), lossless] garry
1 | 0

0 | 1111

1

20.10.2014 09:19

OST & Score Movie, TV Show & Series, Game (Lossless) (Score) Бэтмен будущего: Возвращение Джокера / Batman Beyond: Return of the Joker (by Kristopher Carter) (2000) [FLAC (Tracks+.CUE), lossless] garry
2 | 0

0 | 1038

1

08.05.2015 13:56

OST & Score Movie, TV Show & Series, Game (Lossless) (Score) Бэтмен и тайна женщины-летучей мыши / Batman: Mystery of the Batwoman (by Lolita Ritmanis) (2016 (2003)) [FLAC (Tracks+.CUE), lossless] garry
2 | 0

0 | 956

1

25.07.2016 10:29


Яндекс.Метрика powered by Sphinx


В Н И М А Н И Е
Сайт не распространяет и не хранит электронные версии произведений, а лишь бесплатно и без коммерческой выгоды (не требуя взамен платы,
SMS и т.д.) предоставляет доступ к создаваемому пользователями каталогу ссылок на торрент-файлы, которые содержат только списки хеш-сумм.
Убедительная просьба с жалобами обращаться напрямую к пользователю, разместившему торрент файл.

Вверх